<?xml version="1.0" standalone="no"?>
<!DOCTYPE svg PUBLIC "-//W3C//DTD SVG 1.1//EN" "http://www.w3.org/Graphics/SVG/1.1/DTD/svg11.dtd" >
<svg xmlns="http://www.w3.org/2000/svg">
<metadata>Generated by IcoMoon</metadata>
<defs>
<font id="icomoon" horiz-adv-x="1024">
<font-face units-per-em="1024" ascent="1024" descent="0" />
<missing-glyph horiz-adv-x="1024" />
<glyph unicode="&#x20;" horiz-adv-x="512" d="" />
<glyph unicode="&#xe900;" glyph-name="aircraft" d="M938.671 341.333v85.333l-362.667 213.333v234.667c0 35.413-28.587 64-64 64s-64-28.587-64-64v-234.667l-362.666-213.333v-85.333l362.666 106.667v-234.667l-106.666-64v-64l170.666 42.667 170.667-42.667v64l-106.667 64v234.667l362.667-106.667z" />
<glyph unicode="&#xe901;" glyph-name="arrow-down" d="M707.84 670.083l-195.84-195.412-195.84 195.412-60.16-60.16 256-255.999 256 255.999-60.16 60.16z" />
<glyph unicode="&#xe902;" glyph-name="arrow-left" d="M670.080 316.16l-195.413 195.84 195.413 195.84-60.16 60.16-255.998-256 255.998-256 60.16 60.16z" />
<glyph unicode="&#xe903;" glyph-name="arrow-left-1" d="M384 810.667l60.16-60.16-195.413-195.84h689.92v-85.333h-689.92l195.84-195.84-60.587-60.16-298.667 298.667 298.667 298.667z" />
<glyph unicode="&#xe904;" glyph-name="goblet" d="M810.667 810.667h-85.333v85.333h-426.667v-85.333h-85.333c-46.933 0-85.333-38.4-85.333-85.333v-42.667c0-108.8 81.92-197.547 187.307-210.773 26.88-64 84.48-112.213 154.027-126.293v-132.267h-170.667v-85.333h426.667v85.333h-170.667v132.267c69.547 14.080 127.147 62.293 154.027 126.293 105.387 13.227 187.307 101.973 187.307 210.773v42.667c0 46.933-38.4 85.333-85.333 85.333zM213.333 682.667v42.667h85.333v-162.987c-49.493 17.92-85.333 64.853-85.333 120.32zM810.667 682.667c0-55.467-35.84-102.4-85.333-120.32v162.987h85.333v-42.667z" />
<glyph unicode="&#xe905;" glyph-name="arrow-right-1" d="M353.922 316.16l195.412 195.84-195.412 195.84 60.16 60.16 255.998-256-255.998-256-60.16 60.16z" />
<glyph unicode="&#xe906;" glyph-name="arrow-right-2" d="M640 810.667l-60.16-60.16 195.413-195.84h-689.92v-85.333h689.92l-195.84-195.84 60.587-60.16 298.667 298.667-298.667 298.667z" />
<glyph unicode="&#xe907;" glyph-name="arrow-up" d="M707.84 353.916l-195.84 195.413-195.84-195.413-60.16 60.16 256 256.001 256-256.001-60.16-60.16z" />
<glyph unicode="&#xe908;" glyph-name="attachment" d="M85.333 490.667c0 129.707 104.96 234.667 234.667 234.667h448c94.293 0 170.667-76.373 170.667-170.667s-76.373-170.667-170.667-170.667h-362.667c-58.88 0-106.667 47.787-106.667 106.667s47.787 106.667 106.667 106.667h320v-85.333h-323.84c-23.467 0-23.467-42.667 0-42.667h366.507c46.933 0 85.333 38.4 85.333 85.333s-38.4 85.333-85.333 85.333h-448c-82.347 0-149.333-66.987-149.333-149.333s66.987-149.333 149.333-149.333h405.333v-85.333h-405.333c-129.707 0-234.667 104.96-234.667 234.667z" />
<glyph unicode="&#xe909;" glyph-name="autumn" d="M128 512c0-90.453 31.573-173.653 84.053-239.36l-49.905-50.159-21.649-21.649 0.055-0.055-12.555-12.617 60.16-60.16 12.587 12.587 0.093-0.094 71.477 71.479c66.117-52.433 149.277-83.972 239.683-83.972 98.133 0 196.693 37.547 271.36 112.64 75.093 74.667 112.64 173.227 112.64 271.36v384h-384c-204.8 0-384-164.693-384-384zM333.228 272.883l251.613 251.61-60.339 60.339-251.614-251.61c-37.386 49.873-59.554 111.787-59.554 178.778 0 81.067 31.573 157.013 89.6 212.907 56.32 55.467 130.56 85.76 209.067 85.76h298.667v-298.667c0-79.787-31.147-154.88-87.467-211.2s-131.413-87.467-211.2-87.467c-66.991 0-128.896 22.165-178.772 59.55z" />
<glyph unicode="&#xe90a;" glyph-name="ball" d="M512 85.333c-59.021 0-114.489 11.2-166.4 33.6s-97.067 52.8-135.467 91.2c-38.4 38.4-68.8 83.554-91.2 135.467s-33.6 107.379-33.6 166.4c0 59.021 11.2 114.489 33.6 166.4s52.8 97.067 91.2 135.467c38.4 38.4 83.555 68.8 135.467 91.2s107.379 33.6 166.4 33.6c59.021 0 114.487-11.2 166.4-33.6s97.067-52.8 135.467-91.2c38.4-38.4 68.8-83.555 91.2-135.467s33.6-107.379 33.6-166.4c0-59.021-11.2-114.487-33.6-166.4s-52.8-97.067-91.2-135.467c-38.4-38.4-83.554-68.8-135.467-91.2s-107.379-33.6-166.4-33.6zM725.333 618.667l57.6 19.2 17.067 57.6c-22.754 34.133-50.133 63.467-82.133 88s-67.2 42.845-105.6 54.933l-57.6-40.533v-59.733l170.667-119.467zM298.667 618.667l170.667 119.467v59.733l-57.6 40.533c-38.4-12.089-73.6-30.4-105.6-54.933s-59.378-53.867-82.133-88l17.067-57.6 57.6-19.2zM253.867 290.133l49.067 4.267 32 57.6-61.867 185.6-59.733 21.333-42.667-32c0-46.221 6.4-88.354 19.2-126.4s34.133-74.846 64-110.4zM512 170.667c18.487 0 36.621 1.421 54.4 4.267s35.2 7.113 52.267 12.8l29.867 64-27.733 46.933h-217.6l-27.733-46.933 29.867-64c17.067-5.687 34.487-9.954 52.267-12.8s35.913-4.267 54.4-4.267zM416 384h192l59.733 170.667-155.733 108.8-153.6-108.8 57.6-170.667zM770.133 290.133c29.867 35.554 51.2 72.354 64 110.4s19.2 80.179 19.2 126.4l-42.667 29.867-59.733-19.2-61.867-185.6 32-57.6 49.067-4.267z" />
<glyph unicode="&#xe90b;" glyph-name="ball-filled" d="M512 85.333c-59.021 0-114.489 11.2-166.4 33.6s-97.067 52.8-135.467 91.2c-38.4 38.4-68.8 83.554-91.2 135.467s-33.6 107.379-33.6 166.4c0 59.021 11.2 114.489 33.6 166.4s52.8 97.067 91.2 135.467c38.4 38.4 83.555 68.8 135.467 91.2s107.379 33.6 166.4 33.6c59.021 0 114.487-11.2 166.4-33.6s97.067-52.8 135.467-91.2c38.4-38.4 68.8-83.555 91.2-135.467s33.6-107.379 33.6-166.4c0-59.021-11.2-114.487-33.6-166.4s-52.8-97.067-91.2-135.467c-38.4-38.4-83.554-68.8-135.467-91.2s-107.379-33.6-166.4-33.6zM725.333 618.667l57.6 19.2 17.067 57.6c-22.754 34.133-50.133 63.467-82.133 88s-67.2 42.845-105.6 54.933l-57.6-40.533v-59.733l170.667-119.467zM298.667 618.667l170.667 119.467v59.733l-57.6 40.533c-38.4-12.089-73.6-30.4-105.6-54.933s-59.378-53.867-82.133-88l17.067-57.6 57.6-19.2zM253.867 290.133l49.067 4.267 32 57.6-61.867 185.6-59.733 21.333-42.667-32c0-46.221 6.4-88.354 19.2-126.4s34.133-74.846 64-110.4zM512 170.667c18.487 0 36.621 1.421 54.4 4.267s35.2 7.113 52.267 12.8l29.867 64-27.733 46.933h-217.6l-27.733-46.933 29.867-64c17.067-5.687 34.487-9.954 52.267-12.8s35.913-4.267 54.4-4.267zM770.133 290.133c29.867 35.554 51.2 72.354 64 110.4s19.2 80.179 19.2 126.4l-42.667 29.867-59.733-19.2-61.867-185.6 32-57.6 49.067-4.267z" />
<glyph unicode="&#xe90c;" glyph-name="calendar" d="M810.667 853.333h-42.667v85.333h-85.333v-85.333h-341.333v85.333h-85.333v-85.333h-42.667c-47.36 0-84.907-38.4-84.907-85.333l-0.427-597.333c0-46.933 37.973-85.333 85.333-85.333h597.333c46.933 0 85.333 38.4 85.333 85.333v597.333c0 46.933-38.4 85.333-85.333 85.333zM810.667 170.667h-597.333v426.667h597.333v-426.667zM810.667 682.667h-597.333v85.333h597.333v-85.333zM384 426.667h-85.333v85.333h85.333v-85.333zM554.667 426.667h-85.333v85.333h85.333v-85.333zM725.333 426.667h-85.333v85.333h85.333v-85.333zM384 256h-85.333v85.333h85.333v-85.333zM554.667 256h-85.333v85.333h85.333v-85.333zM725.333 256h-85.333v85.333h85.333v-85.333z" />
<glyph unicode="&#xe90d;" glyph-name="card" d="M170.667 896c0 23.564 19.103 42.667 42.667 42.667h597.333c23.565 0 42.667-19.103 42.667-42.667v-768c0-23.565-19.102-42.667-42.667-42.667h-597.333c-23.564 0-42.667 19.102-42.667 42.667v768z" />
<glyph unicode="&#xe90e;" glyph-name="cart-icon" d="M810.667 768h-85.333c0 117.76-95.573 213.333-213.333 213.333s-213.333-95.573-213.333-213.333h-85.333c-46.933 0-85.333-38.4-85.333-85.333v-512c0-46.933 38.4-85.333 85.333-85.333h597.333c46.933 0 85.333 38.4 85.333 85.333v512c0 46.933-38.4 85.333-85.333 85.333zM512 896c70.827 0 128-57.173 128-128h-256c0 70.827 57.173 128 128 128zM810.667 170.667h-597.333v512h597.333v-512zM512 512c-70.827 0-128 57.173-128 128h-85.333c0-117.76 95.573-213.333 213.333-213.333s213.333 95.573 213.333 213.333h-85.333c0-70.827-57.173-128-128-128z" />
<glyph unicode="&#xe90f;" glyph-name="change" d="M439.164 926.167l60.339-60.34-97.829-97.83h366.326v-85.333h-366.326l97.829-97.831-60.339-60.339-200.835 200.837 200.835 200.837zM584.836 456.832l-60.339-60.339 97.83-97.83h-366.329v-85.333h366.329l-97.83-97.83 60.339-60.339 200.836 200.836-200.836 200.836z" />
<glyph unicode="&#xe910;" glyph-name="slash" d="M307.2 102.4l282.169 819.2h178.631l-281.158-819.2h-179.642z" />
<glyph unicode="&#xe911;" glyph-name="check" d="M384.001 332.796l-179.2 179.2-59.733-59.733 238.933-238.933 511.999 512-59.733 59.733-452.266-452.267z" />
<glyph unicode="&#xe912;" glyph-name="close" d="M810.667 750.507l-60.16 60.16-238.507-238.507-238.507 238.507-60.16-60.16 238.507-238.507-238.507-238.507 60.16-60.16 238.507 238.507 238.507-238.507 60.16 60.16-238.507 238.507 238.507 238.507z" />
<glyph unicode="&#xe913;" glyph-name="copy" d="M682.667 981.333h-512c-46.933 0-85.333-38.4-85.333-85.333v-597.333h85.333v597.333h512v85.333zM810.667 810.667h-469.333c-46.933 0-85.333-38.4-85.333-85.333v-597.333c0-46.933 38.4-85.333 85.333-85.333h469.333c46.933 0 85.333 38.4 85.333 85.333v597.333c0 46.933-38.4 85.333-85.333 85.333zM810.667 128h-469.333v597.333h469.333v-597.333z" />
<glyph unicode="&#xe914;" glyph-name="delete" d="M682.667 640v-426.667h-341.333v426.667h341.333zM618.667 896h-213.333l-42.667-42.667h-149.333v-85.333h597.333v85.333h-149.333l-42.667 42.667zM768 725.333h-512v-512c0-46.933 38.4-85.333 85.333-85.333h341.333c46.933 0 85.333 38.4 85.333 85.333v512z" />
<glyph unicode="&#xe915;" glyph-name="download" d="M768 384v-128h-512v128h-85.333v-128c0-46.933 38.4-85.333 85.333-85.333h512c46.933 0 85.333 38.4 85.333 85.333v128h-85.333zM725.333 554.667l-60.16 60.16-110.507-110.080v348.587h-85.333v-348.587l-110.507 110.080-60.16-60.16 213.333-213.333 213.333 213.333z" />
<glyph unicode="&#xe916;" glyph-name="edit" d="M599.889 639.147l39.253-39.253-386.558-386.56h-39.253v39.253l386.558 386.56zM753.489 896c-10.667 0-21.76-4.267-29.867-12.373l-78.080-78.080 160-160 78.080 78.080c16.64 16.64 16.64 43.52 0 60.16l-99.84 99.84c-8.533 8.533-19.2 12.373-30.293 12.373zM599.889 759.893l-471.892-471.893v-160h160l471.892 471.893-160 160z" />
<glyph unicode="&#xe917;" glyph-name="eye-icon" d="M512 768c161.707 0 305.92-90.88 376.32-234.667-70.4-143.787-214.613-234.667-376.32-234.667s-305.92 90.88-376.32 234.667c70.4 143.787 214.613 234.667 376.32 234.667zM512 853.333c-213.333 0-395.52-132.693-469.333-320 73.813-187.307 256-320 469.333-320s395.52 132.693 469.333 320c-73.813 187.307-256 320-469.333 320zM512 640c58.88 0 106.667-47.787 106.667-106.667s-47.787-106.667-106.667-106.667c-58.88 0-106.667 47.787-106.667 106.667s47.787 106.667 106.667 106.667zM512 725.333c-105.813 0-192-86.187-192-192s86.187-192 192-192c105.813 0 192 86.187 192 192s-86.187 192-192 192z" />
<glyph unicode="&#xe918;" glyph-name="eye-off-icon" d="M512 768.002c161.707 0 305.92-90.88 376.32-234.669-25.173-52.053-60.587-96.853-102.827-133.12l60.16-60.16c59.307 52.48 106.24 118.187 135.68 193.28-73.813 187.309-256 320.002-469.333 320.002-54.187 0-106.24-8.533-155.307-24.32l70.4-70.4c27.733 5.547 55.893 9.387 84.907 9.387zM466.347 719.362l88.32-88.32c24.32-10.667 43.947-30.293 54.613-54.615l88.32-88.32c3.413 14.507 5.973 29.867 5.973 45.653 0.427 105.815-85.76 191.575-191.573 191.575-15.787 0-30.72-2.133-45.653-5.973zM85.76 858.882l114.347-114.347c-69.547-54.613-124.587-127.147-157.44-211.202 73.813-187.307 256-320 469.333-320 64.853 0 127.147 12.373 184.32 34.987l145.92-145.92 60.16 60.16-756.48 756.909-60.16-60.587zM405.76 538.88l111.36-111.36c-1.707-0.427-3.413-0.853-5.12-0.853-58.88 0-106.667 47.787-106.667 106.667 0 2.133 0.427 3.413 0.427 5.547zM260.693 683.949l74.667-74.667c-9.813-23.469-15.36-49.069-15.36-75.949 0-105.813 86.187-192 192-192 26.88 0 52.48 5.547 75.52 15.36l41.813-41.813c-37.547-10.24-76.8-16.213-117.333-16.213-161.707 0-305.92 90.88-376.32 234.667 29.867 61.013 73.387 111.362 125.013 150.615z" />
<glyph unicode="&#xe919;" glyph-name="fan" d="M630.878 600.615c0-65.255-52.066-118.153-116.292-118.153-64.222 0-116.287 52.898-116.287 118.153s52.065 118.154 116.287 118.154c64.226 0 116.292-52.899 116.292-118.154zM902.976 744.874l7.876 15.204c18.082 34.912-6.835 76.845-45.662 76.845-18.982 0-36.433-10.59-45.431-27.572l-0.503-0.946c-19.55 12.221-39.842 23.283-60.779 33.112-77.696 36.477-162.359 55.075-247.949 54.468-85.587-0.607-169.987-20.405-247.174-57.98-18.355-8.935-36.195-18.824-53.454-29.613l-0.508 0.958c-9 16.982-26.45 27.572-45.432 27.572-38.83 0-63.747-41.933-45.662-76.845l7.884-15.22c-22.321-20.358-43.119-42.496-62.182-66.243l90.118-74.676c8.987 11.196 18.456 21.944 28.372 32.218l186.723-360.465v-147.691h290.721v147.691l186.735 360.482c8.41-8.713 16.499-17.769 24.247-27.151l89.084 75.948c-17.643 21.364-36.706 41.373-57.024 59.904zM265.147 704.146c15.566 10.048 31.742 19.17 48.454 27.305 61.75 30.060 129.271 45.898 197.738 46.384 68.471 0.486 136.201-14.393 198.357-43.574 18.79-8.821 36.932-18.883 54.315-30.102l-133.146-251.235h-232.58l-133.138 251.222z" />
<glyph unicode="&#xe91a;" glyph-name="home" d="M426.667 170.667v256h170.667v-256h213.333v341.333h128l-426.667 384-426.667-384h128v-341.333h213.333z" />
<glyph unicode="&#xe91b;" glyph-name="info" d="M469.333 725.333h85.333v-85.333h-85.333v85.333zM469.333 554.667h85.333v-256h-85.333v256zM512 938.667c-235.52 0-426.667-191.147-426.667-426.667s191.147-426.667 426.667-426.667c235.52 0 426.667 191.147 426.667 426.667s-191.147 426.667-426.667 426.667zM512 170.667c-188.16 0-341.333 153.173-341.333 341.333s153.173 341.333 341.333 341.333c188.16 0 341.333-153.173 341.333-341.333s-153.173-341.333-341.333-341.333z" />
<glyph unicode="&#xe91c;" glyph-name="kids" d="M892.16 445.44c-21.76-21.76-45.44-40.96-70.4-58.88l-53.76 93.44v160h64v64h-359.68l-110.72 192h-233.6l64-48.64-96-111.36 60.8-64 99.2 63.36v-255.36l-53.76-93.44c-24.96 17.28-48.64 37.12-70.4 58.88l-67.84-67.84c119.68-119.68 279.040-185.6 448-185.6s328.32 65.92 448 185.6l-67.84 67.84zM284.8 338.56l1.92 3.84 51.84 90.24c111.36-41.6 234.24-41.6 345.6 0l51.84-90.24 1.92-3.84c-70.4-32.64-147.2-50.56-227.2-50.56s-155.52 17.28-225.92 50.56z" />
<glyph unicode="&#xe91d;" glyph-name="language" d="M459.955 266.739h-100.212l-97.523 190.481h-88.78v-190.481h-88.107v501.261h198.409c107.612 0 168.814-53.706 168.814-155.39 0-76.623-34.972-126.747-98.866-146.080l106.265-199.791zM173.44 691.379v-159.689h101.559c61.877 0 88.107 27.93 88.107 80.919 0 50.126-26.23 78.769-88.107 78.769h-101.559zM741.602 256c-127.117 0-199.753 72.324-199.753 199.787v312.213h88.777v-306.483c0-85.931 36.992-128.179 113.668-128.179 73.98 0 110.972 42.249 110.972 128.179v306.483h83.401v-312.213c0-127.462-71.966-199.787-197.065-199.787z" />
<glyph unicode="&#xe91e;" glyph-name="layout" d="M213.333 554.667c-23.467 0-43.549 8.35-60.245 25.045s-25.059 36.793-25.088 60.288v170.667c0 23.467 8.363 43.549 25.088 60.245s36.807 25.059 60.245 25.088h597.333c23.467 0 43.563-8.363 60.288-25.088s25.075-36.807 25.045-60.245v-170.667c0-23.467-8.35-43.563-25.045-60.288s-36.791-25.075-60.288-25.045h-597.333zM213.333 640h597.333v170.667h-597.333v-170.667zM213.333 128c-23.467 0-43.549 8.35-60.245 25.045s-25.059 36.791-25.088 60.288v170.667c0 23.467 8.363 43.55 25.088 60.245s36.807 25.058 60.245 25.088h597.333c23.467 0 43.563-8.363 60.288-25.088s25.075-36.809 25.045-60.245v-170.667c0-23.467-8.35-43.563-25.045-60.288s-36.791-25.075-60.288-25.045h-597.333zM213.333 213.333h597.333v170.667h-597.333v-170.667z" />
<glyph unicode="&#xe91f;" glyph-name="lgota" d="M149.333 800c-46.933 0-85.333-38.4-85.333-85.333v-138.667c95.496 0 95.496-128 0-128v-138.667c0-46.933 38.4-85.333 85.333-85.333h725.333c46.933 0 85.333 38.4 85.333 85.333v138.667c-95.497 0-95.497 128 0 128v138.667c0 46.933-38.4 85.333-85.333 85.333h-725.333zM384 704c35.346 0 64-28.654 64-64s-28.654-64-64-64c-35.346 0-64 28.654-64 64s28.654 64 64 64zM649.333 694.583l45.333-45.25-320-320-45.25 45.333 319.917 319.917zM640 448c35.345 0 64-28.655 64-64s-28.655-64-64-64c-35.345 0-64 28.655-64 64s28.655 64 64 64z" />
<glyph unicode="&#xe920;" glyph-name="link-icon" d="M279.422 770.771l509.271 7.598-7.599-509.27-112.998-1.685 4.723 316.373-402.186-402.185-78.708 78.707 402.183 402.185-316.371-4.72 1.686 112.997z" />
<glyph unicode="&#xe921;" glyph-name="list" d="M128 469.333h85.333v85.333h-85.333v-85.333zM128 298.667h85.333v85.333h-85.333v-85.333zM128 640h85.333v85.333h-85.333v-85.333zM298.667 469.333h597.333v85.333h-597.333v-85.333zM298.667 298.667h597.333v85.333h-597.333v-85.333zM298.667 725.333v-85.333h597.333v85.333h-597.333zM128 469.333h85.333v85.333h-85.333v-85.333zM128 298.667h85.333v85.333h-85.333v-85.333zM128 640h85.333v85.333h-85.333v-85.333zM298.667 469.333h597.333v85.333h-597.333v-85.333zM298.667 298.667h597.333v85.333h-597.333v-85.333zM298.667 725.333v-85.333h597.333v85.333h-597.333z" />
<glyph unicode="&#xe922;" glyph-name="loader" d="M85.333 512c0 235.947 190.72 426.667 426.667 426.667s426.667-190.72 426.667-426.667h-85.333c0 188.587-152.747 341.333-341.333 341.333s-341.333-152.747-341.333-341.333c0-188.587 152.747-341.333 341.333-341.333v-85.333c-235.947 0-426.667 190.72-426.667 426.667z" />
<glyph unicode="&#xe923;" glyph-name="login" d="M469.333 725.333l-59.733-59.733 110.933-110.933h-435.2v-85.333h435.2l-110.933-110.933 59.733-59.733 213.333 213.333-213.333 213.333zM853.333 213.333h-341.333v-85.333h341.333c46.933 0 85.333 38.4 85.333 85.333v597.333c0 46.933-38.4 85.333-85.333 85.333h-341.333v-85.333h341.333v-597.333z" />
<glyph unicode="&#xe924;" glyph-name="menu-button" d="M0 646.751h1024v53.895h-1024v-53.895zM0 323.383h1024v53.892h-1024v-53.892z" />
<glyph unicode="&#xe925;" glyph-name="minus" d="M810.667 469.333h-597.333v85.333h597.333v-85.333z" />
<glyph unicode="&#xe926;" glyph-name="notifications" d="M512 96c46.933 0 85.333 38.4 85.333 85.333h-170.667c0-46.933 38.4-85.333 85.333-85.333zM768 352v213.333c0 130.987-69.547 240.64-192 269.653v29.013c0 35.413-28.587 64-64 64s-64-28.587-64-64v-29.013c-122.027-29.013-192-138.24-192-269.653v-213.333l-85.333-85.333v-42.667h682.667v42.667l-85.333 85.333zM682.667 309.333h-341.333v256c0 105.813 64.427 192 170.667 192s170.667-86.187 170.667-192v-256z" />
<glyph unicode="&#xe927;" glyph-name="penalty" d="M682.667 703.524h-341.333v-362.391h85.333v277.123h170.667v-277.123h85.333v362.391zM512 938.665c-46.387 0.124-92.58-7.728-138.58-23.555-55.807-19.201-104.605-47.827-146.395-85.879s-74.588-81.463-98.394-130.235c-23.806-48.773-37.849-101.325-42.127-157.655-4.279-56.333 3.189-112.384 22.405-168.145 19.215-55.765 47.863-104.525 85.944-146.283 38.080-41.762 81.525-74.534 130.335-98.321s101.402-37.82 157.779-42.095c9.685-0.734 19.366-1.122 29.035-1.165 9.668 0.043 19.349 0.431 29.035 1.165 56.375 4.275 108.971 18.308 157.777 42.095 48.811 23.787 92.258 56.559 130.338 98.321 38.080 41.758 66.726 90.517 85.943 146.283 19.217 55.761 26.684 111.812 22.404 168.145-4.279 56.331-18.321 108.883-42.129 157.655-23.804 48.772-56.602 92.184-98.394 130.235-41.788 38.051-90.59 66.677-146.394 85.879-45.999 15.827-92.194 23.678-138.581 23.555zM512.188 171.388h-0.375c-35.541-0.252-72.337 6.135-110.387 19.162l-8.463 65.57-87.293 63.377-66.22-12.446c-10.525 13.879-19.896 28.514-28.113 43.895-8.477 15.872-15.726 32.542-21.745 50.010s-10.578 35.063-13.676 52.783c-3.098 17.724-4.736 35.571-4.914 53.547l9.167 8.853 51.182 25.327 31.547 103.108-32.735 57.46c21.164 31.441 45.129 57.458 71.896 78.052 30.832 23.722 67.256 43.011 109.271 57.868 0.244 0.045 0.489 0.105 0.733 0.182l46.315-49.029h107.247l46.315 49.029c0.243-0.077 0.491-0.137 0.734-0.182 42.014-14.857 78.438-34.146 109.269-57.868 26.765-20.594 50.731-46.611 71.898-78.052l-32.738-57.46 31.548-103.108 51.183-25.327 9.169-8.853c-0.179-17.975-1.818-35.823-4.915-53.547-3.098-17.719-7.659-35.315-13.679-52.783-6.016-17.468-13.265-34.138-21.743-50.010-8.218-15.381-17.587-30.016-28.113-43.895l-66.219 12.446-87.292-63.377-8.465-65.57c-38.050-13.026-74.846-19.413-110.387-19.162z" />
<glyph unicode="&#xe928;" glyph-name="plus" d="M810.667 469.333h-256v-256h-85.333v256h-256v85.333h256v256h85.333v-256h256v-85.333z" />
<glyph unicode="&#xe929;" glyph-name="question" d="M469.333 256h85.333v85.333h-85.333v-85.333zM512 938.667c-235.52 0-426.667-191.147-426.667-426.667s191.147-426.667 426.667-426.667c235.52 0 426.667 191.147 426.667 426.667s-191.147 426.667-426.667 426.667zM512 170.667c-188.16 0-341.333 153.173-341.333 341.333s153.173 341.333 341.333 341.333c188.16 0 341.333-153.173 341.333-341.333s-153.173-341.333-341.333-341.333zM512 768c-94.293 0-170.667-76.373-170.667-170.667h85.333c0 46.933 38.4 85.333 85.333 85.333s85.333-38.4 85.333-85.333c0-85.333-128-74.667-128-213.333h85.333c0 96 128 106.667 128 213.333 0 94.293-76.373 170.667-170.667 170.667z" />
<glyph unicode="&#xe92a;" glyph-name="refresh" d="M512 170.667c-95.289 0-176 33.067-242.133 99.2s-99.2 146.846-99.2 242.133c0 95.289 33.067 176 99.2 242.133s146.845 99.2 242.133 99.2c49.067 0 96-10.133 140.8-30.4s83.2-49.245 115.2-86.933v117.333h85.333v-298.667h-298.667v85.333h179.2c-22.754 39.822-53.867 71.111-93.333 93.867s-82.313 34.133-128.533 34.133c-71.113 0-131.555-24.889-181.333-74.667s-74.667-110.221-74.667-181.333c0-71.113 24.889-131.554 74.667-181.333s110.221-74.667 181.333-74.667c54.754 0 104.179 15.646 148.267 46.933s75.021 72.533 92.8 123.733h89.6c-19.913-75.379-60.446-136.887-121.6-184.533s-130.846-71.467-209.067-71.467z" />
<glyph unicode="&#xe92b;" glyph-name="search-icon" d="M128 554.667c0 188.49 152.677 341.333 341.338 341.333 188.587 0 341.333-152.747 341.333-341.333 0-78.95-26.79-151.59-71.77-209.408l199.77-199.765-60.16-60.16-199.765 199.765c-57.818-44.979-130.487-71.765-209.412-71.765-188.513 0-341.333 152.819-341.333 341.333zM725.333 554.667c0 141.254-114.761 256-255.996 256-141.279 0-256.004-114.922-256.004-256 0-141.193 114.634-256 256-256 141.235 0 256 114.748 256 256z" />
<glyph unicode="&#xe92c;" glyph-name="sent" d="M170.667 554.667h519.253l-238.507 238.507 60.587 60.16 341.333-341.333-341.333-341.333-60.16 60.16 238.080 238.507h-519.253v85.333z" />
<glyph unicode="&#xe92d;" glyph-name="share" d="M768 337.92c-32.427 0-61.44-12.8-83.627-32.853l-304.213 177.067c2.133 9.813 3.84 19.627 3.84 29.867s-1.707 20.053-3.84 29.867l300.8 175.36c23.040-21.333 53.333-34.56 87.040-34.56 70.827 0 128 57.173 128 128s-57.173 128-128 128c-70.827 0-128-57.173-128-128 0-10.24 1.707-20.053 3.84-29.867l-300.8-175.36c-23.040 21.333-53.333 34.56-87.040 34.56-70.827 0-128-57.173-128-128s57.173-128 128-128c33.707 0 64 13.227 87.040 34.56l303.787-177.493c-2.133-8.96-3.413-18.347-3.413-27.733 0-68.693 55.893-124.587 124.587-124.587s124.587 55.893 124.587 124.587c0 68.693-55.893 124.587-124.587 124.587zM768 853.333c23.467 0 42.667-19.2 42.667-42.667s-19.2-42.667-42.667-42.667c-23.467 0-42.667 19.2-42.667 42.667s19.2 42.667 42.667 42.667zM256 469.333c-23.467 0-42.667 19.2-42.667 42.667s19.2 42.667 42.667 42.667c23.467 0 42.667-19.2 42.667-42.667s-19.2-42.667-42.667-42.667zM768 169.813c-23.467 0-42.667 19.2-42.667 42.667s19.2 42.667 42.667 42.667c23.467 0 42.667-19.2 42.667-42.667s-19.2-42.667-42.667-42.667z" />
<glyph unicode="&#xe92e;" glyph-name="spring" d="M660.907 613.12c-7.68 119.040-55.893 235.093-146.347 325.547-91.307-91.307-141.653-207.36-151.467-325.547 54.613-29.013 104.96-66.56 148.907-112.213 43.947 45.227 94.293 82.773 148.907 112.213zM514.133 802.56c26.88-43.947 45.653-93.013 55.467-144.213-20.053-12.8-38.827-26.88-57.173-41.813-17.92 14.507-37.12 28.587-56.747 41.387 10.667 51.2 30.293 100.267 58.453 144.64zM512 364.8c-99.949 152.363-242.313 232.533-426.667 232.533 0-246.093 182.122-472.439 426.667-512 244.241 43.102 426.667 263.211 426.667 512-178.347 0-334.933-92.587-426.667-232.533zM511.573 171.947c-162.894 33.318-293.745 167.373-329.813 328.96 103.398-24.439 201.626-93.577 258.987-182.613l71.253-109.227 71.253 108.8c59.401 90.394 153.297 158.434 258.987 183.467-36.702-164.915-166.946-293.005-330.667-329.387z" />
<glyph unicode="&#xe92f;" glyph-name="star" d="M512 265.813l263.68-159.147-69.973 299.947 232.96 201.813-306.773 26.027-119.893 282.88-119.893-282.88-306.773-26.027 232.96-201.813-69.973-299.947 263.68 159.147z" />
<glyph unicode="&#xe930;" glyph-name="summer" d="M288.427 798.293l-76.8 76.373-60.16-60.16 76.373-76.373 60.587 60.16zM42.667 556.8h128v-85.333h-128v85.333zM469.333 981.333h85.333v-125.867h-85.333v125.867zM812.373 874.88l60.075-60.032-76.373-76.373-60.032 60.075 76.331 76.331zM735.573 229.973l76.373-76.8 60.16 60.16-76.8 76.373-59.733-59.733zM853.333 556.8h128v-85.333h-128v85.333zM512 770.133c-141.227 0-256-114.773-256-256s114.773-256 256-256c141.227 0 256 114.773 256 256s-114.773 256-256 256zM512 343.467c-94.293 0-170.667 76.373-170.667 170.667s76.373 170.667 170.667 170.667c94.293 0 170.667-76.373 170.667-170.667s-76.373-170.667-170.667-170.667zM469.333 172.8h85.333v-125.867h-85.333v125.867zM151.467 213.76l60.16-60.16 76.373 76.8-60.16 60.16-76.373-76.8z" />
<glyph unicode="&#xe931;" glyph-name="vip" d="M948.326 657.447h-217.886l-145.779 181.803h181.803l181.862-181.803zM511.94 839.25l-145.105-181.803h290.884l-145.779 181.803zM439.219 839.25h-218.165l-145.387-181.803h218.447l145.105 181.803zM730.441 584.725l-145.724-399.966 363.61 399.966h-217.886zM439.275 184.759l-363.608 399.966h218.447l145.161-399.966zM511.996 184.759l-145.161 399.966h290.884l-145.724-399.966z" />
<glyph unicode="&#xe932;" glyph-name="wallet" d="M256 170.667c-46.933 0-87.111 16.713-120.533 50.133s-50.133 73.6-50.133 120.533v341.333c0 46.933 16.711 87.111 50.133 120.533s73.6 50.133 120.533 50.133h512c46.933 0 87.113-16.711 120.533-50.133s50.133-73.6 50.133-120.533v-341.333c0-46.933-16.713-87.113-50.133-120.533s-73.6-50.133-120.533-50.133h-512zM853.333 469.333v42.667c0 23.467-8.354 43.554-25.067 60.267s-36.8 25.067-60.267 25.067h-512c-23.467 0-43.555-8.354-60.267-25.067s-25.067-36.8-25.067-60.267v-42.667h150.248c39.138 0 75.407-20.535 95.543-54.097 43.276-72.124 147.809-72.124 191.086 0 20.134 33.562 56.405 54.097 95.543 54.097h150.246zM170.667 660.105c25.404 15.041 53.849 22.561 85.333 22.561h512c31.484 0 59.93-7.52 85.333-22.561v22.561c0 23.467-8.354 43.555-25.067 60.267s-36.8 25.067-60.267 25.067h-512c-23.467 0-43.555-8.355-60.267-25.067s-25.067-36.8-25.067-60.267v-22.561z" />
<glyph unicode="&#xe933;" glyph-name="winter" d="M938.667 554.667h-177.92l138.24 138.24-60.16 60.587-198.827-198.827h-85.333v85.333l198.827 198.827-60.587 60.16-138.24-138.24v177.92h-85.333v-177.92l-138.24 138.24-60.587-60.16 198.827-198.827v-85.333h-85.333l-198.827 198.827-60.16-60.587 138.24-138.24h-177.92v-85.333h177.92l-138.24-138.24 60.16-60.587 198.827 198.827h85.333v-85.333l-198.827-198.827 60.587-60.16 138.24 138.24v-177.92h85.333v177.92l138.24-138.24 60.587 60.16-198.827 198.827v85.333h85.333l198.827-198.827 60.16 60.587-138.24 138.24h177.92v85.333z" />
<glyph unicode="&#xe934;" glyph-name="play" d="M944 512l-864 512v-1024l864 512z" />
<glyph unicode="&#xe935;" glyph-name="arrow-button-long" d="M864.918 629.208l-23.255-24.986 80.767-75.168h-864.248v-34.133h864.248l-80.767-75.168 23.255-24.986 125.952 117.22-125.952 117.22z" />
<glyph unicode="&#xe936;" glyph-name="arrow-button-short" d="M980.343 527.616l-112.529 104.727-29.067-31.232 72.811-67.765h-504.292v-42.667h504.322l-72.841-67.791 29.067-31.232 129.31 120.343-16.781 15.616z" />
<glyph unicode="&#xe937;" glyph-name="ok" d="M512 738.428c-10.289 0.517-20.573-1.065-30.23-4.647-9.66-3.582-18.488-9.089-25.951-16.189-7.465-7.1-13.407-15.64-17.469-25.108-4.059-9.467-6.154-19.661-6.154-29.962s2.094-20.492 6.154-29.959c4.062-9.467 10.004-18.010 17.469-25.108 7.463-7.1 16.291-12.607 25.951-16.189 9.657-3.582 19.941-5.164 30.23-4.649 10.289-0.514 20.573 1.068 30.23 4.649 9.66 3.582 18.488 9.089 25.951 16.189 7.465 7.097 13.407 15.64 17.469 25.108 4.059 9.467 6.154 19.658 6.154 29.959s-2.094 20.495-6.154 29.962c-4.062 9.467-10.004 18.008-17.469 25.108-7.463 7.1-16.291 12.607-25.951 16.189-9.657 3.582-19.941 5.164-30.23 4.647zM816.762 938.619h-609.524c-67.238 0-121.905-54.667-121.905-121.905v-609.525c0-67.238 54.667-121.905 121.905-121.905h609.524c67.238 0 121.905 54.667 121.905 121.905v609.525c0 67.238-54.667 121.905-121.905 121.905zM512 816.905c40.945 0 80.211-16.265 109.163-45.216s45.217-68.22 45.217-109.166c0-40.943-16.265-80.211-45.217-109.163s-68.218-45.217-109.163-45.217c-40.945 0-80.211 16.265-109.163 45.217s-45.217 68.22-45.217 109.163c0 40.945 16.265 80.213 45.217 109.166 28.952 28.951 68.218 45.216 109.163 45.216zM624.952 496.333c32 25.144 56.191 10.476 64.953-6.856 14.855-30.476-2.097-45.144-40.953-70.478-32.573-20.76-77.524-28.952-107.047-32l24.761-24.571 90.858-90.856c33.141-34.097-20.953-87.24-54.477-54.477-22.857 23.237-56.191 56.571-90.858 91.238l-90.858-91.238c-33.714-32.763-87.618 20.953-54.094 54.477l23.81 23.808c19.81 19.81 43.047 43.24 67.048 67.048l24.571 24.571c-29.333 3.048-74.857 10.859-107.81 32-38.666 25.334-55.81 39.812-40.763 70.478 8.763 17.332 32.953 32 64.953 6.856 0 0 43.237-34.284 112.952-34.284s112.952 34.284 112.952 34.284z" />
<glyph unicode="&#xe938;" glyph-name="rutube" d="M616.004 524.132h-236.137v89.661h236.137c13.375 0 22.682-2.299 27.336-6.322 4.649-4.025 7.561-11.496 7.561-22.416v-32.185c0-11.496-2.911-18.968-7.561-22.989-4.654-4.028-13.961-5.749-27.336-5.749zM698.585 938.619c175.774 0 240.082-64.306 240.082-240.085v-373.163c0-175.779-64.41-240.087-240.189-240.087h-373.058c-175.781 0-240.087 64.307-240.087 240.087v373.163c0 175.779 64.306 240.085 240.087 240.085h373.165zM781.336 698.273c23.945 0 43.357 19.073 43.357 42.598s-19.412 42.596-43.357 42.596c-23.945 0-43.357-19.071-43.357-42.596s19.412-42.598 43.357-42.598zM631.706 698.283h-348.969v-383.366h97.131v124.723h186.114l84.919-124.723h108.761l-93.64 125.301c29.082 4.596 50.018 15.516 62.813 32.761 12.798 17.242 19.195 44.832 19.195 81.613v28.738c0 21.843-2.328 39.083-6.398 52.302-4.072 13.219-11.052 24.715-20.938 35.060-10.469 9.772-22.101 16.672-36.062 21.268-13.956 4.023-31.405 6.324-52.926 6.324z" />
<glyph unicode="&#xe939;" glyph-name="tg" d="M515.296 938.575c56.327-0.442 112.009-12.033 163.835-34.105 51.824-22.072 98.767-54.187 138.116-94.493 39.395-40.32 70.41-88.048 91.253-140.423 20.841-52.378 31.098-108.366 30.176-164.73-28.928-562.856-834.389-558.078-853.333 6.615-0.394 56.471 10.483 112.452 31.993 164.667s53.221 99.611 93.277 139.419c40.033 39.766 87.605 71.135 139.927 92.266s108.334 31.597 164.757 30.785zM592.864 581.198c0 0 0.683-0.427-4.567-7.083-6.429-7.765-13.402-15.065-20.863-21.845l-108.544-105.384c-23.211-23.211-22.743-37.464 4.267-56.92 34.601-24.661 69.673-47.443 105.257-71.678 35.543-24.193 79.148-59.733 97.195-7.553 4.581 13.939 8.051 28.16 10.411 42.667 7.595 41.813 15.189 83.541 21.804 125.781 9.001 59.307 17.535 118.613 25.129 178.432 3.799 29.44-11.861 42.708-41.257 35.584-12.125-2.85-24.008-6.646-35.543-11.349l-309.589-130.56c-29.355-12.288-58.751-25.6-87.679-39.851-7.126-3.755-16.129-14.209-15.659-21.333 0.469-7.127 10.453-15.189 18.517-18.517 19.883-8.065 41.216-13.739 62.081-20.395 15.867-5.42 32.829-6.827 49.371-4.094s32.151 9.518 45.434 19.751c39.38 28.077 79.367 55.291 119.935 81.623 18.988 12.8 32.256 19.924 50.773 32.768 9.472 4.693 11.605 6.912 13.527 4.052v-4.096z" />
<glyph unicode="&#xe93a;" glyph-name="vk" d="M145.314 878.638c-59.981-59.985-59.981-156.538-59.981-349.62v-34.133c0-193.083 0-289.636 59.981-349.616 59.985-59.984 156.536-59.984 349.619-59.984h34.133c193.085 0 289.636 0 349.618 59.984 59.982 59.98 59.982 156.533 59.982 349.616v34.133c0 193.085 0 289.637-59.982 349.62-59.982 59.981-156.533 59.981-349.618 59.981h-34.133c-193.085 0-289.636 0-349.619-59.981zM229.333 679.061h97.423c3.201-162.843 75.020-231.821 131.911-246.043v246.045h91.733v-140.444c56.176 6.044 115.2 70.044 135.109 140.444h91.733c-7.504-36.51-22.462-71.080-43.934-101.547-21.475-30.469-49.003-56.176-80.864-75.52 35.574-17.662 66.996-42.674 92.189-73.379 25.19-30.708 43.576-66.414 53.943-104.755h-100.976c-9.304 33.307-28.238 63.12-54.426 85.704-26.188 22.582-58.463 36.925-92.774 41.231v-126.935h-11.023c-194.487 0-305.421 133.335-310.044 355.201z" />
<glyph unicode="&#xe93b;" glyph-name="download-2" d="M510.069 235.696l354.734 365.483-78.706 81.092-220.372-227.046v568.775h-111.311v-568.775l-220.371 227.046-78.709-81.092 354.735-365.483zM170.749 0h682.664v113.778h-682.664v-113.778z" />
<glyph unicode="&#xe93c;" glyph-name="pic" d="M128 853.333h768v-682.667h-768v682.667zM192 375.467h640l-205.716 341.333-159.998-256-114.286 170.667-160-256z" />
<glyph unicode="&#xe93d;" glyph-name="video" d="M810.667 512l-597.333 384v-768l597.333 384z" />
<glyph unicode="&#xe93e;" glyph-name="bitkoni" horiz-adv-x="709" d="M56.588 574.243c0 135.811 124.49 271.62 328.205 271.62 0 0 72.817 4.155 101.859 22.635 33.205 21.131 35.19 53.758 22.634 53.758h-66.249v82.051h-90.944v-82.051l-68.204-12.308v94.359h-90.94v-123.077c0 0-192.949-137.225-192.949-306.987 0-169.76 90.539-215.028 90.539-215.028 18.745 0 15 8.424 4.679 31.63-13.605 30.594-38.63 86.875-38.63 183.398zM624.817 144.187v33.95c-20.358 16.774-39.688 27.546-55.702 36.462-28.688 15.986-46.722 26.029-40.921 54.075 31.744 153.482-48.152 194.918-107.914 225.914-36.534 18.948-65.543 33.989-56.915 68.34 16.731 66.635 101.211 27.727 224.103-28.873 12.741-5.868 25.891-11.93 39.432-18.081 11.756-4.387 24.86 1.54 29.271 13.249l21.425 56.883c2.576 6.829 1.682 14.478-2.395 20.539-81.885 121.755-193.406 171.315-300.473 171.315-125.746 0-250.238-79.222-250.238-226.351 0-93.456 27.607-135.463 52.425-173.225 20.263-30.83 38.669-58.841 38.669-109.71 0-26.029-16.237-34.099-56.176-53.949-17.945-8.921-40.674-20.216-68.869-36.588v-33.95c0-12.501 10.179-22.638 22.736-22.638h102.309v-101.856h90.94v101.856h68.204v-101.856h90.939v101.856h136.416c12.552 0 22.733 10.138 22.733 22.638z" />
<glyph unicode="&#xe93f;" glyph-name="fire" d="M405.333 533.333l-85.355 149.333c-203.511-229.393-211.433-448.119 21.355-640l191.902 341.333 149.308-341.333c320.307 324.309 178.338 657.453-149.308 938.667l-127.902-448z" />
<glyph unicode="&#xe940;" glyph-name="calendar-fill" d="M213.333 85.333c-47.128 0-85.333 38.204-85.333 85.333v597.333c0 47.128 38.205 85.333 85.333 85.333h42.667v85.333h85.333v-85.333h341.333v85.333h85.333v-85.333h42.667c47.13 0 85.333-38.205 85.333-85.333v-242.133c-13.513 6.4-27.379 11.733-41.6 16s-28.8 7.467-43.733 9.6v45.867h-597.333v-426.667h268.8c4.979-15.646 10.85-30.579 17.621-44.8s14.763-27.733 23.979-40.533h-310.4zM768 42.667c-59.021 0-109.325 20.809-150.912 62.421s-62.391 91.917-62.421 150.912c-0.030 58.995 20.779 109.299 62.421 150.912s91.947 62.421 150.912 62.421c58.965 0 109.282-20.809 150.955-62.421s62.464-91.917 62.379-150.912c-0.085-58.995-20.894-109.312-62.421-150.955s-91.831-62.434-150.912-62.379zM839.467 154.667l29.867 29.867-80 80v119.467h-42.667v-136.533l92.8-92.8z" />
<glyph unicode="&#xe941;" glyph-name="id-card" d="M601.6 468.002h224v87.996h-224v-87.996zM601.6 600h224v88h-224v-88zM198.4 336h358.4v24.201c0 32.998-16.427 59.209-49.28 78.626-32.853 19.422-76.16 29.146-129.92 29.175-53.76 0.026-97.067-9.698-129.92-29.175s-49.28-45.687-49.28-78.626v-24.201zM377.6 512c24.64 0 45.741 8.61 63.3 25.826 17.562 17.22 26.33 37.943 26.3 62.174-0.030 24.229-8.798 44.939-26.3 62.128-17.5 17.19-38.601 25.813-63.3 25.872s-45.786-8.565-63.258-25.872c-17.472-17.306-26.253-38.016-26.342-62.128s8.691-44.834 26.342-62.174c17.651-17.335 38.737-25.946 63.258-25.826zM149.333 160c-47.128 0-85.333 38.204-85.333 85.333v533.333c0 47.128 38.205 85.333 85.333 85.333h725.333c47.13 0 85.333-38.205 85.333-85.333v-533.333c0-47.13-38.204-85.333-85.333-85.333h-725.333z" />
<glyph unicode="&#xe942;" glyph-name="favorite" d="M512 120.525l-61.867 56.32c-219.733 199.253-364.8 330.667-364.8 491.947 0 131.413 103.253 234.667 234.667 234.667 74.24 0 145.493-34.56 192-89.173 46.507 54.613 117.76 89.173 192 89.173 131.413 0 234.667-103.253 234.667-234.667 0-161.28-145.067-292.693-364.8-492.373l-61.867-55.893z" />
<glyph unicode="&#xe943;" glyph-name="news" horiz-adv-x="1081" d="M208.583 938.667h682.667v-682.667l-170.667-170.667h-512v853.333zM763.25 725.333h-426.667v-85.333h426.667v85.333zM763.25 512h-426.667v-85.333h426.667v85.333z" />
<glyph unicode="&#xe944;" glyph-name="mail" d="M512.023 950.889c242.375 0 438.858-196.483 438.858-438.858 0-242.372-196.483-438.858-438.858-438.858-242.373 0-438.856 196.486-438.856 438.858 0 242.375 196.483 438.858 438.856 438.858zM841.353 510.302c0.375 178.372-148.568 324.010-331.773 324.398-183.202 0.387-332.765-144.617-333.142-322.992-0.377-178.372 148.569-324.011 331.774-324.398 112.381-0.239 187.42 56.024 187.42 56.024l-43.796 49.101c0 0-58.618-40.906-143.491-40.727-146.913 0.31-266.070 116.821-265.767 259.86 0.302 143.041 119.952 259.045 266.865 258.735s266.072-116.82 265.768-259.861c-0.156-74.086-24.789-98.537-54.642-98.475-25.168 0.051-44.442 18.901-44.388 45.685l0.111 52.998c0.193 90.044-74.576 163.149-167.051 163.342-92.479 0.196-167.555-72.59-167.745-162.631-0.191-90.044 74.576-163.146 167.057-163.342 46.822-0.1 89.006 18.617 119.506 48.757 19.251-29.676 53.157-49.692 92.373-49.775 67.311-0.142 120.684 52.176 120.92 163.302zM508.686 412.413c-56.192 0.122-101.166 44.666-101.049 98.807 0.114 54.707 45.275 98.492 101.464 98.375 55.606-0.119 101.168-44.097 101.055-98.807-0.117-54.138-45.864-98.492-101.47-98.375z" />
<glyph unicode="&#xe945;" glyph-name="yandex" d="M512.023 73.173c242.375 0 438.858 196.486 438.858 438.858 0 242.375-196.483 438.858-438.858 438.858-242.373 0-438.856-196.483-438.856-438.858 0-242.372 196.483-438.858 438.856-438.858zM665.557 248.277h-91.685v455.401h-40.917c-75.017 0-114.421-37.885-114.421-93.958 0-63.65 27.278-93.204 83.351-131.089l46.222-31.067-133.362-199.287h-99.263l119.723 178.071c-68.955 49.252-107.6 96.99-107.6 178.068 0 101.535 70.471 170.491 204.59 170.491h133.362v-526.63z" />
<glyph unicode="&#xe946;" glyph-name="settings" d="M768 853.333c0 11.316-4.497 22.168-12.497 30.17s-18.854 12.497-30.17 12.497c-11.315 0-22.17-4.495-30.17-12.497s-12.497-18.854-12.497-30.17v-42.667h-512c-11.316 0-22.168-4.495-30.17-12.497s-12.497-18.854-12.497-30.17c0-11.316 4.495-22.168 12.497-30.17s18.854-12.497 30.17-12.497h512v-42.667c0-11.316 4.497-22.168 12.497-30.17s18.854-12.497 30.17-12.497c11.315 0 22.17 4.495 30.17 12.497s12.497 18.854 12.497 30.17v42.667h85.333c11.315 0 22.17 4.495 30.17 12.497s12.497 18.854 12.497 30.17c0 11.316-4.497 22.168-12.497 30.17s-18.854 12.497-30.17 12.497h-85.333v42.667zM170.667 554.667c-11.316 0-22.168-4.497-30.17-12.497s-12.497-18.854-12.497-30.17c0-11.315 4.495-22.17 12.497-30.17s18.854-12.497 30.17-12.497h85.333v-42.667c0-11.315 4.495-22.17 12.497-30.17s18.854-12.497 30.17-12.497c11.316 0 22.168 4.497 30.17 12.497s12.497 18.854 12.497 30.17v42.667h512c11.315 0 22.17 4.497 30.17 12.497s12.497 18.854 12.497 30.17c0 11.315-4.497 22.17-12.497 30.17s-18.854 12.497-30.17 12.497h-512v42.667c0 11.316-4.495 22.168-12.497 30.17s-18.854 12.497-30.17 12.497c-11.316 0-22.168-4.495-30.17-12.497s-12.497-18.854-12.497-30.17v-42.667h-85.333zM128 256c0 11.315 4.495 22.17 12.497 30.17s18.854 12.497 30.17 12.497h512v42.667c0 11.315 4.497 22.17 12.497 30.17s18.854 12.497 30.17 12.497c11.315 0 22.17-4.497 30.17-12.497s12.497-18.854 12.497-30.17v-42.667h85.333c11.315 0 22.17-4.497 30.17-12.497s12.497-18.854 12.497-30.17c0-11.315-4.497-22.17-12.497-30.17s-18.854-12.497-30.17-12.497h-85.333v-42.667c0-11.315-4.497-22.17-12.497-30.17s-18.854-12.497-30.17-12.497c-11.315 0-22.17 4.497-30.17 12.497s-12.497 18.854-12.497 30.17v42.667h-512c-11.316 0-22.168 4.497-30.17 12.497s-12.497 18.854-12.497 30.17z" />
<glyph unicode="&#xe947;" glyph-name="qr-code" d="M128 554.667h341.333v341.333h-341.333v-341.333zM213.333 810.667h170.667v-170.667h-170.667v170.667zM128 128h341.333v341.333h-341.333v-341.333zM213.333 384h170.667v-170.667h-170.667v170.667zM554.667 896v-341.333h341.333v341.333h-341.333zM810.667 640h-170.667v170.667h170.667v-170.667zM896 213.333h-85.333v-85.333h85.333v85.333zM640 469.333h-85.333v-85.333h85.333v85.333zM725.333 384h-85.333v-85.333h85.333v85.333zM640 298.667h-85.333v-85.333h85.333v85.333zM725.333 213.333h-85.333v-85.333h85.333v85.333zM810.667 298.667h-85.333v-85.333h85.333v85.333zM810.667 469.333h-85.333v-85.333h85.333v85.333zM896 384h-85.333v-85.333h85.333v85.333z" />
<glyph unicode="&#xe948;" glyph-name="whistle" horiz-adv-x="1170" d="M1028.301 1003.143h-338.243l-559.619-573.262h0.772c-38.612-40.671-64.354-107.856-64.354-184.567 0-123.685 66.799-224.461 148.914-224.461h524.354c82.117 0 148.912 100.389 148.912 224.461 0 47.236-9.523 91.254-26.127 127.808l242.227 553.441h-0.388l-76.449 76.581zM443.712 666.702h299.5l-48.135-76.709h-326.015l74.65 76.709zM740.25 103.739c-23.292 0-66.023 53.928-66.023 141.451 0 87.904 42.731 141.446 66.023 141.446 23.296 0 66.033-53.542 66.033-141.446 0-87.523-42.737-141.451-66.033-141.451z" />
<glyph unicode="&#xe949;" glyph-name="change-icon-left" horiz-adv-x="1303" d="M37.295 545.278l478.733 478.732 109.074-109.073-292.534-292.533h970.695v-154.253h-970.695l292.534-292.533-109.074-109.077-478.733 478.737z" />
<glyph unicode="&#xe94a;" glyph-name="change-icon-right" horiz-adv-x="1303" d="M1265.981 545.268l-478.736-478.736-109.074 109.076 292.534 292.533h-970.699v154.253h970.699l-292.534 292.533 109.074 109.074 478.736-478.732z" />
<glyph unicode="&#xe94b;" glyph-name="check-mark" horiz-adv-x="1434" d="M521.309 0l-521.309 487.62 182.458 170.666 338.851-316.953 729.834 682.667 182.456-170.667-912.291-853.333z" />
<glyph unicode="&#xe94c;" glyph-name="warning" d="M42.714 128.011l469.333 810.668 469.332-810.668h-938.665zM189.914 213.347h644.265l-322.132 554.665-322.133-554.665zM512.048 256.011c12.091 0 22.221 4.089 30.402 12.266 8.177 8.181 12.266 18.311 12.266 30.402 0 12.087-4.089 22.221-12.266 30.398-8.181 8.181-18.311 12.27-30.402 12.27s-22.221-4.089-30.398-12.27c-8.181-8.177-12.27-18.311-12.27-30.398 0-12.091 4.089-22.221 12.27-30.402 8.177-8.177 18.308-12.266 30.398-12.266zM469.38 384.011h85.336v213.336h-85.336v-213.336z" />
<glyph unicode="&#xe94d;" glyph-name="web" d="M395.437 849.006c-17.323-43.389-30.298-88.388-38.736-134.339h310.599c-8.455 45.953-21.453 90.953-38.795 134.339-17.43 42.444-37.522 74.929-58.368 96.296-20.731 21.309-40.36 29.937-58.136 29.937s-37.405-8.628-58.136-29.937c-20.846-21.425-40.938-53.851-58.427-96.296zM389.878 958.967c-18.181-24.667-34.163-54.489-47.945-87.899-18.53-45.166-33.585-98.091-44.122-156.401h-202.493c28.923 59.312 70.155 111.777 120.947 153.902s109.977 72.942 173.614 90.398zM634.178 958.967c18.125-24.667 34.165-54.489 47.889-87.899 18.53-45.166 33.585-98.091 44.122-156.401h202.494c-28.923 59.312-70.154 111.777-120.947 153.902s-109.922 72.942-173.558 90.398zM952.191 656.762h-217.259c5.676-46.034 8.687-94.618 8.687-144.762s-3.011-98.728-8.687-144.762h217.259c15.316 46.726 23.096 95.59 23.047 144.762 0.049 49.172-7.731 98.036-23.047 144.762zM928.683 309.333h-202.494c-10.537-58.309-25.537-111.294-44.122-156.343-12.371-31.137-28.45-60.67-47.889-87.957 63.627 17.462 122.802 48.284 173.583 90.407 50.783 42.125 92.004 94.588 120.922 153.893zM512 48.762c17.776 0 37.405 8.628 58.136 29.937 20.846 21.424 40.938 53.85 58.368 96.295 17.342 43.386 30.34 88.386 38.795 134.339h-310.599c9.728-50.551 22.986-95.949 38.795-134.339 17.43-42.445 37.522-74.928 58.368-96.295 20.731-21.309 40.36-29.937 58.136-29.937zM389.822 65.034c-63.617 17.469-122.78 48.294-173.551 90.419-50.771 42.123-91.984 94.581-120.896 153.88h202.494c10.537-58.309 25.534-111.294 44.122-156.343 13.724-33.47 29.764-63.291 47.945-87.957zM71.866 367.238h217.202c-5.773 48.038-8.675 96.378-8.687 144.762 0 50.144 3.011 98.728 8.687 144.762h-217.26c-15.316-46.726-23.096-95.59-23.046-144.762 0-50.551 8.164-99.191 23.104-144.762zM338.286 512c0 50.666 3.243 99.306 9.15 144.762h329.128c5.908-45.456 9.15-94.096 9.15-144.762s-3.243-99.248-9.15-144.762h-329.128c-6.232 48.001-9.289 96.358-9.15 144.762z" />
<glyph unicode="&#xe94e;" glyph-name="youtube" d="M931.806 803.865c-14.533 14.983-32.763 25.866-52.848 31.548-73.387 17.92-366.933 17.92-366.933 17.92s-293.547 0-366.933-19.627c-20.086-5.682-38.316-16.565-52.849-31.548s-24.856-33.537-29.924-53.785c-13.431-74.476-20.001-150.028-19.627-225.707-0.479-76.247 6.091-152.376 19.627-227.413 5.588-19.619 16.141-37.469 30.641-51.817 14.5-14.351 32.456-24.72 52.133-30.103 73.387-19.627 366.933-19.627 366.933-19.627s293.547 0 366.933 19.627c20.085 5.683 38.315 16.564 52.848 31.549 14.536 14.982 24.856 33.536 29.925 53.784 13.327 73.916 19.897 148.892 19.627 224 0.478 76.247-6.090 152.376-19.627 227.413-5.069 20.248-15.389 38.802-29.925 53.785zM661.358 522.667l-245.333-139.52v279.040l245.333-139.52z" />
<glyph unicode="&#xe94f;" glyph-name="ball-new" d="M438.081 162.56l13.438 62.72c2.239 9.708 6.909 17.732 14.001 24.081 7.093 6.345 15.865 10.267 26.32 11.759l138.878 11.199c9.708 1.495 18.668-0.372 26.88-5.598 8.212-5.229 14.186-12.322 17.92-21.282l17.92-42.557c29.119 17.172 55.255 37.891 78.401 62.157 23.146 24.269 42.561 51.337 58.238 81.203l-13.438 6.717c-8.212 5.973-14.186 13.254-17.92 21.842-3.734 8.585-4.482 17.732-2.239 27.44l31.358 136.639c2.239 8.96 6.909 16.428 14.001 22.402s15.118 9.704 24.078 11.199c-3.731 18.668-8.397 36.772-13.998 54.32-5.601 17.545-12.882 34.533-21.842 50.961-6.717-3.734-13.998-5.414-21.839-5.041s-14.746 2.799-20.719 7.281l-118.719 71.679c-8.216 5.226-14.189 12.32-17.923 21.28-3.731 8.96-4.478 18.293-2.239 28l8.96 38.080c-23.146 10.453-46.851 18.293-71.12 23.52-24.265 5.227-49.094 7.84-74.479 7.84-10.455 0-21.279-0.56-32.481-1.68-11.199-1.12-22.026-2.8-32.478-5.040l33.597-76.16c3.734-8.96 4.669-18.293 2.802-28s-6.533-17.547-14.001-23.52l-105.281-91.839c-7.465-6.721-16.237-10.455-26.318-11.199-10.080-0.748-19.227 1.492-27.44 6.717l-103.040 62.721c-17.174-28.373-30.427-58.799-39.76-91.28s-14-65.519-14-99.12c0-11.947 1.493-31.358 4.48-58.238l98.56 8.96c10.453 1.492 19.973-0.188 28.56-5.041s14.747-12.134 18.48-21.839l53.761-127.683c3.731-8.96 4.666-18.292 2.799-28s-6.533-17.545-14.001-23.518l-42.558-35.84c20.16-14.933 41.627-27.255 64.4-36.963 22.774-9.704 46.107-16.797 70.001-21.279zM518.721 355.198c-9.708-1.492-18.668 0.375-26.88 5.601-8.216 5.226-14.189 12.322-17.92 21.282l-60.481 138.878c-3.734 8.96-4.294 18.292-1.679 28 2.611 9.708 7.653 17.548 15.118 23.521l114.241 96.321c6.721 6.717 14.933 10.452 24.641 11.199s18.668-1.495 26.88-6.721l125.44-73.919c8.212-5.226 14.561-12.322 19.040-21.282 4.482-8.96 5.601-18.292 3.359-28l-35.84-145.599c-2.239-9.708-6.717-17.732-13.438-24.081-6.721-6.345-14.933-10.264-24.641-11.759l-147.838-13.442zM512 64c-61.972 0-120.214 11.759-174.72 35.28s-101.92 55.439-142.24 95.761c-40.32 40.318-72.24 87.733-95.76 142.24-23.52 54.504-35.28 112.746-35.28 174.718s11.76 120.214 35.28 174.72c23.52 54.507 55.44 101.92 95.76 142.24s87.733 72.24 142.24 95.76c54.506 23.52 112.748 35.28 174.72 35.28s120.214-11.76 174.718-35.28c54.508-23.52 101.922-55.44 142.24-95.76 40.322-40.32 72.24-87.733 95.761-142.24s35.28-112.748 35.28-174.72-11.759-120.214-35.28-174.718c-23.521-54.508-55.439-101.922-95.761-142.24-40.318-40.322-87.733-72.24-142.24-95.761-54.504-23.521-112.746-35.28-174.718-35.28z" />
<glyph unicode="&#xe950;" glyph-name="bus" d="M375.042 418.876c20.571-0.009 37.325-17.306 37.333-38.541-0.007-21.239-16.762-38.537-37.333-38.545-20.579 0-37.327 17.301-37.333 38.545 0.009 21.239 16.755 38.541 37.333 38.541zM648.794 418.876c20.578 0 37.325-17.301 37.333-38.541-0.009-21.244-16.755-38.545-37.333-38.545-20.578 0.009-37.329 17.306-37.333 38.545 0.009 21.235 16.759 38.532 37.333 38.541zM673.707 752.875c20.574-0.009 37.329-17.305 37.333-38.542v-205.542c-0.004-21.239-16.759-38.532-37.333-38.541h-323.582c-20.575 0.004-37.328 17.301-37.333 38.541v205.542c0.006 21.239 16.759 38.535 37.333 38.542h323.582zM512 1024c282.769 0 512-229.23 512-512s-229.231-512-512-512c-282.77 0-512 229.231-512 512s229.23 512 512 512zM330.292 810.667c-34.322 0-62.25-28.847-62.25-64.25l-1.167-96.958c-30.22-4.374-53.538-31.221-53.542-63.585v-25.707c0.006-21.244 16.753-38.541 37.333-38.541h14.708l-2.292-192.666c0-31.031 21.431-56.973 49.833-62.916v-14.17c0.003-21.244 16.752-38.541 37.333-38.541h49.75c20.582 0 37.329 17.297 37.333 38.541v12.834h149.333v-12.834c0.004-21.244 16.751-38.541 37.333-38.541h49.749c20.582 0 37.329 17.297 37.333 38.541v14.17c28.356 5.982 49.749 31.919 49.749 62.916l2.334 192.666h10.167c20.578 0 37.329 17.297 37.333 38.541v25.707c-0.004 29.611-19.533 54.57-45.999 61.96l1.207 98.583c0 35.401-27.93 64.247-62.251 64.25h-373.333z" />
<glyph unicode="&#xe951;" glyph-name="car" d="M307.792 515.75c30.566 0.943 58.578-3.209 84.583-13.124 12.305-7.616 22.005-21.914 30.792-38.084 4.387-10.47 4.379-19.051-6.167-21.918l-12.417-0.247c-30.915-0.013-73.821 4.087-92.166 5.999-5.235 0.559-9.496 4.83-10.375 10.458-2.101 13.875-3.953 27.75-6 41.626-1.161 7.872 4.36 15.057 11.75 15.292zM715.627 515.75c7.258-0.235 12.826-7.206 11.789-15.002-1.856-13.867-3.866-27.755-5.666-41.626-0.768-5.743-5.009-10.21-10.372-10.748-21.261-2.185-74.569-7.223-104.375-5.751-10.564 2.863-10.564 11.439-6.17 21.918 8.789 16.175 18.483 30.468 30.793 38.084 25.267 9.941 53.828 14.097 84.002 13.124zM358.042 738.458c102.345 11.925 205.615 11.937 307.959 0.041l15.706-1.833c8.41-0.974 15.326-7.573 17.293-16.458l24.917-119.875-197.248-7.002c-9.771-0.35-19.554-0.35-29.295 0l-195.165 7.002 23.333 119.625c1.882 9 8.849 15.743 17.333 16.75l15.167 1.75zM512 1024c282.769 0 512-229.23 512-512s-229.231-512-512-512c-282.77 0-512 229.231-512 512s229.23 512 512 512zM672.998 768c-107.337 18.094-214.66 18.094-322.874 0-12.522-1.507-28.919-5.969-40.458-14.875-4.94-3.837-8.349-9.558-10.042-15.875-10.615-40.196-20.511-86.916-30.417-126.167-18.475 14.284-98.525 16.162-98.542-28.543 0-37.103 30.77-36.164 54.542-36.164-7.041-14.289-12.333-36.139-12.333-67.541-0.873-59.917-0.875-128.388-0.875-189.252 0-11.422 8.812-19.998 18.5-19.998h69.583c10.207 0 18.5 8.96 18.5 19.998v31.334h385.958v-31.334c0-11.422 8.772-19.998 18.458-19.998h69.585c10.641 0 19.366 9.378 19.375 20.915 0 60.659-0.875 128.747-0.875 188.373-0.875 31.373-6.195 53.286-12.335 67.541 22.844 0 54.541-0.947 54.541 35.209l0.043-0.081c0 49.5-83.584 40.935-98.543 29.541-9.933 39.34-20.621 86.204-31.373 126.458-1.886 7.025-5.99 13.099-11.669 17.083-11.238 7.906-26.935 11.956-38.75 13.375z" />
<glyph unicode="&#xe952;" glyph-name="metro" d="M512 1024c282.769 0 512-229.23 512-512s-229.231-512-512-512c-282.77 0-512 229.231-512 512s229.23 512 512 512zM511.667 529.126l-115.542 202.29-137.041-346.167h-39.584v-52.002h206.333v52.002h-30.542l29.708 85.956 86.667-142.042 86.626 142.042 29.747-85.956h-30.541v-52.002h207.125v52.002l-40.418 0.124-136.998 346.043-115.541-202.29z" />
<glyph unicode="&#xe953;" glyph-name="taxi" d="M512 1024c282.769 0 512-229.23 512-512s-229.231-512-512-512c-282.77 0-512 229.231-512 512s229.23 512 512 512zM307.209 512v-136.542h136.542v136.542h-136.542zM580.25 512v-136.542h136.542v136.542h-136.542zM170.667 648.542v-136.542h136.542v136.542h-136.542zM443.75 648.542v-136.542h136.499v136.542h-136.499zM716.791 648.542v-136.542h136.542v136.542h-136.542z" />
<glyph unicode="&#xe954;" glyph-name="twitter" d="M754.645 893.312l-213.163-243.669-184.32 243.669h-267.051l319.019-417.109-302.336-345.557h129.451l233.344 266.667 203.947-266.667h260.352l-332.544 439.637 282.667 323.029zM709.248 208.085l-468.011 611.883h76.928l462.763-611.84z" />
<glyph unicode="&#xe955;" glyph-name="facebook" d="M938.667 512c0 235.52-191.147 426.667-426.667 426.667s-426.667-191.147-426.667-426.667c0-206.507 146.773-378.453 341.333-418.133v290.133h-85.333v128h85.333v106.667c0 82.347 66.987 149.333 149.333 149.333h106.667v-128h-85.333c-23.467 0-42.667-19.2-42.667-42.667v-85.333h128v-128h-128v-296.533c215.467 21.333 384 203.093 384 424.533z" />
<glyph unicode="&#xe956;" glyph-name="instagram" d="M512.043 640c-70.692 0-128-57.308-128-128s57.308-128 128-128v0c70.692 0 128 57.308 128 128s-57.308 128-128 128v0zM512.043 725.333c117.821 0 213.333-95.513 213.333-213.333s-95.513-213.333-213.333-213.333v0c-117.821 0-213.333 95.513-213.333 213.333s95.513 213.333 213.333 213.333v0zM789.376 736c0-29.455-23.878-53.333-53.333-53.333s-53.333 23.878-53.333 53.333v0c0 29.455 23.878 53.333 53.333 53.333s53.333-23.878 53.333-53.333v0zM512.043 853.333c-105.557 0-122.795-0.299-171.904-2.475-33.451-1.579-55.893-6.059-76.715-14.165-18.076-6.772-33.47-16.995-46.050-29.963l-0.030-0.031c-13.016-12.607-23.252-28.001-29.755-45.228l-0.282-0.852c-8.107-20.907-12.587-43.307-14.123-76.715-2.219-47.104-2.517-63.573-2.517-171.904 0-105.6 0.299-122.795 2.475-171.904 1.579-33.408 6.059-55.893 14.123-76.672 7.253-18.56 15.787-31.915 29.952-46.080 14.379-14.336 27.733-22.912 46.080-29.995 21.077-8.149 43.52-12.672 76.8-14.208 47.104-2.219 63.573-2.475 171.904-2.475 105.6 0 122.795 0.299 171.904 2.475 33.365 1.579 55.808 6.059 76.672 14.123 18.076 6.772 33.47 16.995 46.050 29.963l0.030 0.031c14.379 14.336 22.955 27.691 30.037 46.080 8.107 20.992 12.629 43.435 14.165 76.8 2.219 47.061 2.475 63.573 2.475 171.861 0 105.557-0.299 122.795-2.475 171.904-1.579 33.365-6.101 55.893-14.165 76.715-6.772 18.076-16.995 33.47-29.963 46.050l-0.031 0.030c-12.607 13.016-28.001 23.252-45.228 29.755l-0.852 0.282c-20.907 8.107-43.349 12.587-76.715 14.123-47.061 2.219-63.531 2.475-171.904 2.475zM512 938.667c115.925 0 130.389-0.427 175.915-2.56 45.397-2.133 76.373-9.259 103.552-19.84 28.16-10.837 51.883-25.515 75.605-49.195 21.158-20.796 37.893-46.018 48.711-74.174l0.483-1.431c10.539-27.179 17.707-58.155 19.84-103.595 2.005-45.483 2.56-59.947 2.56-175.872s-0.427-130.389-2.56-175.872-9.301-76.373-19.84-103.595c-11.302-29.587-28.037-54.809-49.165-75.576l-0.030-0.029c-20.796-21.158-46.018-37.893-74.174-48.711l-1.431-0.483c-27.179-10.539-58.155-17.707-103.552-19.84-45.525-2.005-59.989-2.56-175.915-2.56s-130.389 0.427-175.915 2.56c-45.397 2.133-76.331 9.301-103.552 19.84-29.587 11.302-54.809 28.037-75.576 49.165l-0.029 0.030c-21.158 20.796-37.893 46.018-48.711 74.174l-0.483 1.431c-10.581 27.179-17.707 58.155-19.84 103.595-2.048 45.483-2.56 59.947-2.56 175.872s0.427 130.389 2.56 175.872 9.259 76.373 19.84 103.595c11.302 29.587 28.037 54.809 49.165 75.576l0.030 0.029c20.796 21.158 46.018 37.893 74.174 48.711l1.431 0.483c27.179 10.581 58.112 17.707 103.552 19.84 45.568 2.005 60.032 2.56 175.957 2.56z" />
<glyph unicode="&#xe957;" glyph-name="vip2" d="M85.333 725.333v-384h853.333v384l-204.8-204.8-221.867 332.8-221.867-332.8-204.8 204.8zM938.667 170.667v85.333h-853.333v-85.333h853.333z" />
<glyph unicode="&#xe958;" glyph-name="vip3" d="M512.083 1024l-443.417-256v-512l443.417-256 443.417 256v512l-443.417 256zM128 682.667h67.25l94.167-270.167 95.083 270.167h62.833l-124.333-341.333h-71.667l-123.333 341.333zM488.833 682.667h63.833v-341.333h-63.833v341.333zM629.75 682.667h144.333c78.016 0 121.917-36.591 121.917-105.833 0-70.217-43.901-107.25-121.917-107.25h-80.417v-128.25h-63.917v341.333zM693.667 630.5v-108.75h73.583c44.86 0 63.917 19 63.917 55.083 0 34.133-19.057 53.667-63.917 53.667h-73.583z" />
<glyph unicode="&#xe959;" glyph-name="rotate-left" d="M703.552 142.541c-46.189-26.669-94.516-42.867-144.987-48.608-50.47-5.734-99.262-2.291-146.375 10.33-47.113 12.627-91.089 34.042-131.93 64.243-40.84 30.208-74.594 68.403-101.26 114.592l73.901 42.662c41.6-72.051 101.984-118.688 181.153-139.898 79.169-21.216 154.78-11.021 226.836 30.579 72.051 41.6 118.682 101.984 139.898 181.154s11.021 154.78-30.579 226.833-101.984 118.687-181.155 139.9c-79.169 21.213-154.78 11.020-226.833-30.58l-5.542-3.2 90.34-24.206-20.797-83.445-233.135 62.468 62.468 233.135 82.664-23.711-24.207-90.34 5.543 3.2c46.188 26.667 94.517 42.869 144.988 48.606s99.263 2.294 146.376-10.33c47.111-12.623 91.092-34.038 131.93-64.242s74.592-68.4 101.261-114.588c26.662-46.188 42.867-94.518 48.608-144.988 5.734-50.471 2.291-99.263-10.33-146.376-12.627-47.11-34.042-91.091-64.243-131.93-30.208-40.838-68.403-74.592-114.592-101.261z" />
<glyph unicode="&#xe95a;" glyph-name="rotate-right" d="M320.446 142.541c46.188-26.669 94.518-42.867 144.989-48.608 50.47-5.734 99.262-2.291 146.375 10.33 47.115 12.627 91.089 34.042 131.928 64.243 40.845 30.208 74.598 68.403 101.261 114.592l-73.901 42.662c-41.6-72.051-101.984-118.688-181.151-139.898-79.169-21.216-154.78-11.021-226.833 30.579s-118.687 101.984-139.9 181.154c-21.213 79.169-11.020 154.78 30.58 226.833s101.985 118.687 181.153 139.9c79.169 21.213 154.78 11.020 226.833-30.58l5.542-3.2-90.339-24.206 20.797-83.445 233.132 62.468-62.464 233.135-82.669-23.711 24.211-90.34-5.542 3.2c-46.189 26.667-94.519 42.869-144.99 48.606s-99.263 2.294-146.376-10.33c-47.112-12.623-91.089-34.038-131.93-64.242s-74.593-68.4-101.26-114.588c-26.667-46.188-42.868-94.518-48.606-144.988s-2.294-99.263 10.33-146.376c12.624-47.11 34.038-91.091 64.242-131.93s68.4-74.592 114.588-101.261z" />
<glyph unicode="&#xe95b;" glyph-name="flip-hor" d="M384 128.045h-170.667c-23.466 0-43.555 8.352-60.266 25.062s-25.067 36.8-25.067 60.269v597.332c0 23.466 8.356 43.555 25.067 60.266s36.8 25.067 60.266 25.067h170.667v-85.333h-170.667v-597.332h170.667v-85.331zM469.333 42.707v938.668h85.334v-938.668h-85.334zM640 128.045v85.331h85.331v-85.331h-85.331zM640 810.708v85.333h85.331v-85.333h-85.331zM810.669 128.045v85.331h85.331c0-23.469-8.358-43.558-25.069-60.269s-36.8-25.062-60.262-25.062zM810.669 298.707v85.334h85.331v-85.334h-85.331zM810.669 469.375v85.334h85.331v-85.334h-85.331zM810.669 640.042v85.333h85.331v-85.333h-85.331zM810.669 810.708v85.333c23.462 0 43.552-8.355 60.262-25.067s25.069-36.8 25.069-60.266h-85.331z" />
<glyph unicode="&#xe95c;" glyph-name="flip-vert" d="M127.834 640v170.667c0 23.466 8.355 43.555 25.066 60.266s36.8 25.067 60.267 25.067h597.336c23.462 0 43.552-8.356 60.262-25.067s25.069-36.8 25.069-60.266v-170.667h-85.331v170.667h-597.336v-170.667h-85.333zM42.5 554.667h938.665v-85.334h-938.665v85.334zM127.834 384h85.333v-85.331h-85.333v85.331zM810.502 384h85.331v-85.331h-85.331v85.331zM127.834 213.331h85.333v-85.331c-23.467 0-43.556 8.358-60.267 25.069s-25.066 36.8-25.066 60.262zM298.5 213.331h85.334v-85.331h-85.334v85.331zM469.167 213.331h85.333v-85.331h-85.333v85.331zM639.834 213.331h85.331v-85.331h-85.331v85.331zM810.502 213.331h85.331c0-23.462-8.358-43.552-25.069-60.262s-36.8-25.069-60.262-25.069v85.331z" />
<glyph unicode="&#xe95d;" glyph-name="penalty-off" d="M360.893 816.65l-63.811 63.81c23.804 13.776 49.26 25.328 76.371 34.656 46 15.827 92.192 23.679 138.579 23.555 46.387 0.124 92.582-7.728 138.582-23.555 55.805-19.201 104.605-47.827 146.394-85.878s74.589-81.463 98.394-130.236c23.808-48.771 37.85-101.325 42.128-157.658s-3.19-112.381-22.403-168.144c-9.318-27.040-20.854-52.432-34.608-76.179l-63.104 63.107c6.48 13.088 12.157 26.698 17.027 40.832 6.019 17.469 10.576 35.066 13.677 52.787 3.098 17.722 4.736 35.568 4.912 53.546l-9.168 8.851-51.181 25.328-31.546 103.107 32.733 57.459c-21.162 31.441-45.13 57.459-71.894 78.052-30.832 23.722-67.254 43.011-109.27 57.868-0.243 0.045-0.49 0.105-0.733 0.182l-46.317-49.029h-107.245l-46.317 49.029c-0.243-0.077-0.486-0.137-0.733-0.182-17.827-6.305-34.653-13.408-50.467-21.309zM169.798 766.388l-84.924 84.924 60.34 60.34 761.46-761.462-60.339-60.339-79.939 79.939c-21.242-15.866-43.76-29.597-67.552-41.19-48.81-23.789-101.402-37.821-157.776-42.096-9.686-0.733-19.366-1.123-29.037-1.165-9.67 0.042-19.347 0.432-29.037 1.165-56.374 4.275-108.966 18.307-157.776 42.096s-92.255 56.56-130.335 98.32c-38.080 41.757-66.728 90.518-85.944 146.282s-26.684 111.811-22.405 168.144c4.279 56.333 18.322 108.886 42.128 157.658 11.583 23.732 25.295 46.194 41.136 67.386zM230.195 702.038l32.735-57.459-31.547-103.107-51.182-25.328-9.167-8.851c0.178-17.978 1.815-35.824 4.914-53.546s7.657-35.318 13.676-52.787c6.020-17.466 13.268-34.138 21.745-50.006 8.216-15.382 17.587-30.016 28.113-43.898l66.22 12.445 87.294-63.373 8.461-65.574c38.051-13.027 74.848-19.414 110.387-19.162h0.378c35.539-0.253 72.336 6.134 110.387 19.162l8.464 65.574 28.381 20.605-232.755 232.755v-168.349h-85.331v253.68l-73 73.002c-5.276 5.274-35.225 38.596-38.172 34.218zM559.28 618.262l-85.267 85.267h208.685v-208.688l-85.331 85.334v38.086h-38.086z" />
<glyph unicode="&#xe95e;" glyph-name="bag" d="M694.852 819.197v43.886c0 23.279-9.634 45.603-26.778 62.064-17.148 16.46-40.401 25.708-64.649 25.708h-182.859c-24.248 0-47.504-9.247-64.65-25.708s-26.779-38.785-26.779-62.064v-43.886c-48.497 0-95.007-18.495-129.3-51.415s-53.557-77.571-53.557-124.128v-482.741c0-23.279 9.632-45.606 26.779-62.067 17.146-16.457 40.401-25.707 64.649-25.707h548.573c24.247 0 47.501 9.25 64.649 25.707 17.148 16.461 26.778 38.788 26.778 62.067v482.741c0 46.557-19.264 91.207-53.555 124.128-34.295 32.921-80.802 51.415-129.301 51.415zM420.567 863.083h182.859v-43.886h-182.859v43.886zM511.996 643.654l91.43-87.771-91.43-87.77-91.429 87.77 91.429 87.771zM786.283 336.452h-411.43v-87.77h-45.714v87.77h-91.429v43.887h548.573v-43.887z" />
<glyph unicode="&#xe95f;" glyph-name="control" d="M512 0c-144.291 0-265.697 26.948-364.218 80.849s-147.782 120.043-147.782 198.426c0 22.494 4.655 44.403 13.964 65.719 9.309 21.321 22.885 42.078 40.727 62.281 17.842 20.198 39.765 38.229 65.769 54.084s55.281 30.409 87.831 43.661c11.636 4.655 23.087 4.062 34.351-1.771s18.82-14.942 22.668-27.324c3.879-11.635 2.917-23.083-2.886-34.347s-14.538-19.597-26.205-24.998c-21.721-8.533-41.317-18.044-58.787-28.531s-32.396-21.922-44.777-34.304c-13.188-12.412-23.087-25.024-29.696-37.841s-9.899-25.024-9.868-36.629c0-49.651 41.891-93.094 125.673-130.33s181.527-55.855 293.236-55.855c111.71 0 209.455 18.62 293.235 55.855 83.785 37.235 125.675 80.678 125.675 130.33 0 11.635-3.307 23.859-9.916 36.676s-16.491 25.412-29.649 37.794c-12.412 12.412-27.337 23.846-44.774 34.304-17.442 10.458-37.035 19.968-58.79 28.531-11.635 5.431-20.356 13.764-26.159 24.998-5.803 11.23-6.78 22.682-2.931 34.347 3.878 12.416 11.452 21.521 22.716 27.324s22.699 6.391 34.304 1.771c28.702-11.639 54.891-24.64 78.566-39.006s44.42-30.067 62.234-47.104c22.498-20.945 39.377-43.255 50.641-66.931 11.264-23.68 16.879-47.915 16.849-72.704 0-78.353-49.259-144.495-147.78-198.426s-219.93-80.879-364.22-80.849zM418.909 186.18c-13.188 0-24.235 4.471-33.14 13.406-8.905 8.939-13.374 19.985-13.405 33.139v465.456h-186.182c-13.188 0-24.235 4.468-33.14 13.405s-13.374 19.984-13.405 33.14c-0.031 13.157 4.437 24.204 13.405 33.14s20.015 13.405 33.14 13.405h651.638c13.188 0 24.247-4.468 33.186-13.405 8.934-8.937 13.389-19.984 13.359-33.14-0.034-13.157-4.501-24.219-13.406-33.187s-19.951-13.42-33.139-13.359h-186.185v-465.456c0-13.184-4.467-24.247-13.406-33.186-8.934-8.934-19.981-13.389-33.139-13.359-13.154 0.034-24.205 4.501-33.139 13.406-8.939 8.905-13.406 19.955-13.406 33.139v186.185h-93.090v-186.185c0-13.184-4.467-24.247-13.406-33.186-8.934-8.934-19.985-13.389-33.14-13.359zM512 837.818c-25.6 0-47.509 9.107-65.724 27.322s-27.336 40.138-27.367 65.769c-0.031 25.631 9.093 47.538 27.367 65.722 18.278 18.184 40.188 27.307 65.724 27.369s47.462-9.061 65.771-27.369c18.304-18.308 27.413-40.215 27.319-65.722s-9.199-47.43-27.319-65.769c-18.125-18.339-40.047-27.446-65.771-27.322z" />
<glyph unicode="&#xe960;" glyph-name="tiktok" d="M938.667 818.174c0 66.546-53.948 120.493-120.493 120.493h-612.347c-66.546 0-120.493-53.947-120.493-120.493v-612.347c0-66.548 53.947-120.493 120.493-120.493h612.347c66.545 0 120.493 53.945 120.493 120.493v612.347zM792.276 566.489c-55.057-0.614-106.357 16.030-151.401 46.855v-216.398c0-96.178-65.833-178.795-158.93-200.372-127.005-28.974-234.52 62.886-248.081 172.624-14.18 109.744 55.81 205.922 163.084 227.501 20.963 4.313 52.49 4.313 68.757 0.614v-115.905c-5.005 1.229-9.691 2.465-14.624 3.079-41.925 7.4-82.53-13.561-99.174-51.785-16.647-38.227-5.505-82.615 28.404-108.512 28.357-22.194 59.824-25.273 91.882-10.476 32.061 14.178 49.291 40.070 52.987 75.213 0.617 4.93 0.583 10.481 0.583 16.030v416.156c0 11.713 0.093 11.202 11.805 11.202h91.863c6.783 0 9.25-0.976 9.867-8.995 4.927-71.517 59.226-132.423 128.892-141.673 7.4-1.231 15.328-1.721 24.086-2.336v-112.823z" />
<glyph unicode="&#xe961;" glyph-name="eat" d="M312.448 938.667h-141.781v85.333h199.552l85.333-213.333h440.448v-85.333h-90.368l-35.285-599.851c-0.64-10.859-5.406-21.065-13.321-28.527s-18.381-11.618-29.261-11.622h-431.531c-10.878 0.004-21.344 4.16-29.26 11.622s-12.68 17.668-13.322 28.527l-35.285 599.851h-90.368v85.333h235.648l-51.2 128zM303.829 725.333l7.595-129.067c114.005-4.693 169.344-25.813 215.936-44.459 44.843-17.92 81.92-33.536 180.352-38.4l12.459 211.925h-416.341z" />
<glyph unicode="&#xe962;" glyph-name="entrance" d="M410.861 461.427h-101.136v101.133h101.136v-101.133zM714.27 562.56h-101.137v-101.133h101.137v101.133zM967.108 158.016v-101.133h-910.223v101.133h50.568v707.952c0 55.625 45.511 101.136 101.136 101.136h606.813c55.625 0 101.137-45.511 101.137-101.136v-707.952h50.569zM461.427 865.968h-252.838v-707.952h252.838v707.952zM815.403 865.968h-252.838v-707.952h252.838v707.952z" />
<glyph unicode="&#xe963;" glyph-name="family" d="M704 147.191c-42.394 0-76.8 42.97-76.8 96s34.406 96 76.8 96c42.394 0 76.8-42.97 76.8-96s-34.406-96-76.8-96zM512 550.391c-63.629 0-115.202 42.97-115.202 96s51.573 96 115.202 96c63.629 0 115.2-42.97 115.2-96s-51.571-96-115.2-96zM319.998 147.191c-42.394 0-76.8 42.97-76.8 96s34.406 96 76.8 96c42.394 0 76.8-42.97 76.8-96s-34.406-96-76.8-96zM512 703.991c10.18 0 19.951-4.046 27.149-11.247 7.202-7.201 11.251-16.969 11.251-27.153s-4.049-19.951-11.251-27.153c-7.198-7.201-16.969-11.247-27.149-11.247-10.185 0-19.955 4.046-27.153 11.247-7.202 7.201-11.247 16.969-11.247 27.153s4.045 19.952 11.247 27.153c7.198 7.201 16.969 11.247 27.153 11.247zM857.6 511.991c-15.983-0.047-31.782-3.422-46.387-9.907-24.653 30.874-58.138 57.485-98.035 78.182 30.327 42.049 46.652 92.577 46.656 144.422 0 0.96-0.154 1.92-0.154 2.88 29.871 6.507 56.286 23.816 74.176 48.607 17.894 24.791 25.997 55.316 22.763 85.717-3.238 30.4-17.591 58.535-40.299 79.002-22.711 20.468-52.181 31.826-82.752 31.896-35.251 0-66.931-14.861-89.51-38.477-39.509 25.067-85.321 38.393-132.109 38.427s-92.62-13.226-132.162-38.235c-11.535 12.088-25.4 21.712-40.758 28.293s-31.89 9.979-48.599 9.992c-32.895 0-64.443-13.068-87.704-36.328s-36.328-54.808-36.328-87.704c0.023-28.248 9.687-55.643 27.395-77.652s42.399-37.315 69.987-43.384l-0.154-3.034c0-54.029 17.472-103.872 46.81-144.653-39.706-20.659-73.075-47.194-97.651-77.952-14.608 6.485-30.405 9.86-46.387 9.907-30.553 0-59.855-12.139-81.459-33.741-21.604-21.606-33.741-50.906-33.741-81.459s12.137-59.853 33.741-81.459c21.604-21.602 50.906-33.741 81.459-33.741 1.075 0 2.074 0.307 3.11 0.307-2.124-12.791-3.165-25.741-3.11-38.707 0-106.061 68.774-192 153.6-192 51.878 0 97.498 32.333 125.34 81.523 21.581-3.034 43.814-4.723 66.662-4.723s45.082 1.69 66.662 4.723c27.84-49.19 73.459-81.523 125.338-81.523 84.826 0 153.6 85.939 153.6 192 0 13.312-1.037 26.214-3.11 38.707 1.037 0 2.035-0.307 3.11-0.307 30.549 0 59.853 12.139 81.455 33.741 21.606 21.606 33.745 50.906 33.745 81.459s-12.139 59.853-33.745 81.459c-21.602 21.602-50.906 33.741-81.455 33.741z" />
<glyph unicode="&#xe964;" glyph-name="fun" d="M572.194 963.423c3.422 3.154 7.437 5.602 11.806 7.204 4.373 1.603 9.015 2.328 13.67 2.135 4.651-0.193 9.22-1.301 13.444-3.26s8.017-4.731 11.17-8.158c28.638-31.095 42.863-68.050 37.474-108.928-5.103-39.034-27.409-76.462-60.203-112.094l-113.702-123.578c-6.366-6.918-15.223-11.024-24.614-11.414-9.395-0.39-18.56 2.968-25.476 9.335-6.921 6.367-11.026 15.221-11.416 24.616s2.968 18.558 9.334 25.477l113.702 123.578c27.883 30.244 39.693 54.676 42.103 73.296 2.223 16.729-2.505 33.363-19.375 51.699-3.153 3.425-5.602 7.438-7.202 11.809-1.604 4.372-2.33 9.016-2.133 13.668 0.192 4.652 1.297 9.22 3.26 13.443 1.958 4.224 4.727 8.020 8.158 11.172zM323.007 890.080c9.4 0 18.415-3.734 25.062-10.381s10.381-15.662 10.381-25.062v-23.628c0-9.4-3.734-18.415-10.381-25.062s-15.662-10.381-25.062-10.381c-9.4 0-18.415 3.734-25.062 10.381s-10.381 15.662-10.381 25.062v23.628c0 9.4 3.734 18.415 10.381 25.062s15.662 10.381 25.062 10.381zM890.091 925.523c9.399 0 18.415-3.734 25.062-10.381s10.381-15.662 10.381-25.062v-23.629c0-9.4-3.733-18.415-10.381-25.062s-15.663-10.381-25.062-10.381c-9.399 0-18.415 3.734-25.062 10.381s-10.381 15.662-10.381 25.062v23.629c0 9.4 3.733 18.415 10.381 25.062s15.663 10.381 25.062 10.381zM890.091 500.207c9.399 0 18.415-3.733 25.062-10.381 6.647-6.643 10.381-15.659 10.381-25.062v-23.625c0-9.404-3.733-18.415-10.381-25.062s-15.663-10.381-25.062-10.381c-9.399 0-18.415 3.733-25.062 10.381s-10.381 15.659-10.381 25.062v23.625c0 9.404 3.733 18.419 10.381 25.062 6.647 6.647 15.663 10.381 25.062 10.381zM795.575 263.923c9.399 0 18.415-3.733 25.062-10.381s10.381-15.663 10.381-25.062v-23.629c0-9.399-3.733-18.415-10.381-25.062s-15.663-10.381-25.062-10.381c-9.399 0-18.415 3.733-25.062 10.381s-10.381 15.663-10.381 25.062v23.629c0 9.399 3.733 18.415 10.381 25.062s15.663 10.381 25.062 10.381zM823.646 642.405c-24.102 0-53.21-12.948-87.663-50.375l-113.698-123.533c-3.119-3.533-6.912-6.413-11.162-8.465-4.245-2.052-8.858-3.238-13.568-3.482-4.71-0.247-9.421 0.448-13.858 2.044-4.437 1.6-8.508 4.066-11.981 7.258s-6.272 7.044-8.235 11.332c-1.967 4.288-3.055 8.926-3.204 13.636-0.149 4.715 0.644 9.412 2.334 13.815s4.241 8.422 7.501 11.827l113.749 123.579c41.395 44.989 88.038 73.249 139.785 73.249s98.389-28.26 139.789-73.249c6.366-6.918 9.724-16.082 9.331-25.477-0.388-9.394-4.493-18.248-11.413-24.614-6.916-6.37-16.081-9.728-25.476-9.335-9.395 0.388-18.249 4.493-24.614 11.413-34.402 37.427-63.561 50.375-87.616 50.375zM176.557 654.74c3.165 9.846 8.843 18.696 16.474 25.676s16.951 11.849 27.040 14.125c10.088 2.276 20.596 1.882 30.485-1.145s18.817-8.582 25.903-16.115l367.518-357.592c28.352-31.663 15.356-81.993-24.858-95.936l-488.921-169.178c-45.839-15.881-89.977 26.795-76.556 72.777l122.159 524.553c0.189 0.945 0.441 1.89 0.756 2.836z" />
<glyph unicode="&#xe966;" glyph-name="health" d="M432 460.8h-133.333v153.6h133.333v128h160v-128h133.333v-153.6h-133.333v-128h-160v128zM512 1024l-426.667-153.6v-311.808c0-258.56 181.867-499.712 426.667-558.592 244.8 58.88 426.667 300.032 426.667 558.592v311.808l-426.667 153.6zM832 558.592c0-204.8-136-394.24-320-452.096-184 57.856-320 246.784-320 452.096v240.64l320 115.2 320-115.2v-240.64z" />
<glyph unicode="&#xe967;" glyph-name="info-2" d="M632.235 650.683l-254.042-27.28-9.097-36.122 49.921-7.889c32.614-6.652 39.049-16.73 31.949-44.578l-81.87-329.647c-21.521-85.261 11.648-125.376 89.635-125.376 60.459 0 130.684 23.957 162.522 56.845l9.762 39.539c-22.187-16.725-54.579-23.381-76.1-23.381-30.511 0-41.604 18.347-33.728 50.662l111.049 447.227zM640 849.155c0-25.21-11.686-49.387-32.491-67.213s-49.024-27.841-78.443-27.841c-29.423 0-57.643 10.015-78.447 27.841s-32.491 42.003-32.491 67.213c0 25.21 11.686 49.387 32.491 67.213s49.024 27.84 78.447 27.84c29.419 0 57.638-10.014 78.443-27.84s32.491-42.003 32.491-67.213z" />
<glyph unicode="&#xe968;" glyph-name="lift" d="M146.289 73.139h219.429v292.574h73.143v182.857c0 40.226-14.313 74.653-42.935 103.276s-63.074 42.959-103.351 43.008h-73.143c-40.229 0-74.655-14.336-103.278-43.008s-42.959-63.097-43.008-103.276v-182.857h73.143v-292.574zM256.003 767.996c25.6 0 47.25 8.85 64.951 26.551s26.527 39.326 26.478 64.878c-0.049 25.551-8.899 47.202-26.551 64.951s-39.278 26.575-64.878 26.478c-25.6-0.098-47.25-8.948-64.951-26.551s-26.526-39.229-26.478-64.878c0.049-25.649 8.899-47.299 26.551-64.951s39.278-26.478 64.878-26.478zM585.148 585.139h365.713l-182.857 292.571-182.857-292.571zM768.004 146.283l182.857 292.57h-365.713l182.857-292.57z" />
<glyph unicode="&#xe969;" glyph-name="other" d="M512 972.791c-122.214 0-239.42-48.548-325.837-134.965s-134.965-203.623-134.965-325.835c0-122.21 48.549-239.42 134.965-325.833 86.417-86.417 203.623-134.967 325.837-134.967 122.21 0 239.415 48.55 325.833 134.967 86.417 86.413 134.967 203.622 134.967 325.833s-48.55 239.418-134.967 325.835-203.622 134.965-325.833 134.965zM339.198 511.991c0-15.275-6.068-29.926-16.87-40.73s-25.453-16.87-40.73-16.87c-15.276 0-29.927 6.067-40.729 16.87s-16.871 25.455-16.871 40.73c0 15.275 6.068 29.926 16.871 40.73s25.453 16.87 40.729 16.87c15.276 0 29.927-6.067 40.73-16.87s16.87-25.455 16.87-40.73zM569.6 511.991c0-15.275-6.071-29.926-16.875-40.73-10.799-10.803-25.451-16.87-40.725-16.87-15.279 0-29.931 6.067-40.73 16.87-10.803 10.803-16.87 25.455-16.87 40.73s6.067 29.926 16.87 40.73c10.799 10.803 25.451 16.87 40.73 16.87 15.275 0 29.926-6.067 40.725-16.87 10.803-10.803 16.875-25.455 16.875-40.73zM800 511.991c0-15.275-6.071-29.926-16.875-40.73-10.799-10.803-25.451-16.87-40.725-16.87-15.279 0-29.931 6.067-40.73 16.87-10.803 10.803-16.87 25.455-16.87 40.73s6.067 29.926 16.87 40.73c10.799 10.803 25.451 16.87 40.73 16.87 15.275 0 29.926-6.067 40.725-16.87 10.803-10.803 16.875-25.455 16.875-40.73z" />
<glyph unicode="&#xe96b;" glyph-name="parking-zone" d="M554.637 512h-128.001v170.667h128.001c22.63 0 44.335-8.99 60.339-24.994s24.994-37.708 24.994-60.34c0-22.63-8.99-44.335-24.994-60.339s-37.709-24.994-60.339-24.994zM158.021 967.104h707.95c55.855 0 101.137-45.28 101.137-101.136v-707.952c0-55.855-45.282-101.133-101.137-101.133h-707.95c-55.856 0-101.136 45.278-101.136 101.133v707.952c0 55.856 45.28 101.136 101.136 101.136zM554.637 768h-213.335v-512h85.333v170.667h128.001c45.261 0 88.67 17.98 120.678 49.988 32.004 32.004 49.988 75.413 49.988 120.678s-17.984 88.673-49.988 120.68-75.418 49.987-120.678 49.987z" />
<glyph unicode="&#xe96d;" glyph-name="service-premises" d="M295.555 486.071l-73.472 18.368c-27.635 6.908-56.788 4.339-82.791-7.287-26.003-11.631-47.352-31.646-60.628-56.849s-17.711-54.131-12.594-82.15c5.116-28.023 19.488-53.517 40.813-72.401l140.672-124.544c53.152-47.040 115.612-82.359 183.315-103.663s139.136-28.113 209.647-19.985c87.663 10.133 168.013 53.786 224.222 121.818 56.213 68.032 83.925 155.17 77.346 243.174l-27.968 373.12c-1.421 18.843-6.925 37.15-16.137 53.65-9.207 16.5-21.901 30.795-37.197 41.893s-32.823 18.73-51.362 22.368c-18.543 3.638-37.658 3.193-56.009-1.303l-0.32 7.232c-1.126 29.199-12.113 57.156-31.164 79.312s-45.047 37.204-73.749 42.69c-28.702 5.486-58.415 1.088-84.297-12.479s-46.4-35.501-58.214-62.227c-19.277 9.412-40.576 13.929-62.012 13.153s-42.352-6.822-60.896-17.603c-18.545-10.781-34.147-25.966-45.428-44.211s-17.893-38.988-19.25-60.396l-22.528-351.68zM402.627 655.031l8.064 125.952 2.88 45.248 0.384 5.376c0.517 8.713 4.312 16.907 10.622 22.937s14.668 9.449 23.398 9.571c8.725 0.122 17.173-3.063 23.65-8.915s10.496-13.937 11.26-22.633l0.448-5.376 4.096-45.184 2.048-22.144 9.408-103.552 12.864-141.824 0.256-2.496h64l0.256 5.824 9.344 244.608 3.136 80.384 1.92 50.688 0.128 2.56c0.644 8.364 4.425 16.177 10.581 21.873s14.242 8.857 22.63 8.849c8.388-0.008 16.465-3.184 22.613-8.893s9.911-13.528 10.543-21.894l0.128-2.56 1.92-50.688 1.28-36.864 1.28-33.536 9.792-264 0.128-4.032 0.192-4.928 0.128-3.392h64l0.128 2.368 2.56 48.768 8.896 168.96 2.496 47.232 0.192 4.352c0.41 8.749 4.194 17 10.551 23.024s14.801 9.356 23.561 9.296c17.792 0 32.64-13.76 33.984-31.552l0.32-4.352 3.52-47.168 12.672-168.704 11.52-152.832c4.715-63.279-15.232-125.931-55.659-174.839s-98.202-80.286-161.237-87.561c-57.122-6.583-114.987-1.067-169.835 16.188-54.845 17.259-105.444 45.871-148.503 83.972l-140.608 124.48c-5.28 4.625-8.849 10.893-10.13 17.792-1.281 6.903-0.201 14.033 3.068 20.245s8.534 11.14 14.947 13.995c6.413 2.85 13.6 3.46 20.402 1.728l185.152-46.4 6.272 97.472 12.352 192.576z" />
<glyph unicode="&#xe96e;" glyph-name="shop" d="M384 768c0 33.948 13.486 66.505 37.49 90.51s56.564 37.49 90.51 37.49c33.946 0 66.505-13.486 90.509-37.49s37.491-56.562 37.491-90.51h-256zM298.667 768h-128c-11.316 0-22.168-4.495-30.17-12.497s-12.497-18.854-12.497-30.17v-597.333c0-11.315 4.495-22.17 12.497-30.17s18.854-12.497 30.17-12.497h682.667c11.315 0 22.17 4.497 30.17 12.497s12.497 18.854 12.497 30.17v597.333c0 11.316-4.497 22.168-12.497 30.17s-18.854 12.497-30.17 12.497h-128c0 56.579-22.477 110.842-62.485 150.849-40.004 40.008-94.268 62.484-150.848 62.484s-110.842-22.476-150.849-62.484c-40.008-40.008-62.484-94.27-62.484-150.849zM384 597.333c0-33.946 13.486-66.505 37.49-90.509s56.564-37.491 90.51-37.491c33.946 0 66.505 13.487 90.509 37.491s37.491 56.563 37.491 90.509h85.333c0-56.58-22.477-110.844-62.485-150.848-40.004-40.009-94.268-62.485-150.848-62.485s-110.842 22.477-150.849 62.485c-40.008 40.004-62.484 94.268-62.484 150.848h85.333z" />
<glyph unicode="&#xe96f;" glyph-name="stadium" d="M298.688 810.667l-170.667-85.333v170.667l170.667-85.333zM768.021 896v-170.667l170.667 85.333-170.667 85.333zM469.355 938.667v-170.667l170.667 85.333-170.667 85.333zM213.354 597.333c59.733-21.333 162.133-42.667 298.667-42.667s238.933 21.333 298.667 42.667c0 8.533-119.467 42.667-298.667 42.667s-298.667-38.4-298.667-42.667zM640.021 298.667h-256v-209.067c-174.933 17.067-298.667 64-298.667 123.733v384c0 72.533 192 128 426.667 128s426.667-55.467 426.667-128v-384c0-55.467-123.733-106.667-298.667-123.733v209.067z" />
<glyph unicode="&#xe970;" glyph-name="stairs" d="M640.004 768h298.667v-128h-170.667v-170.667h-170.667v-170.667h-170.667v-170.667h-298.668v128h170.667v170.667h170.668v170.667h170.667v170.667zM433.924 739.84l-235.094-235.093-78.080 78.080 235.093 235.093-78.507 78.080h234.668v-234.667l-78.080 78.507z" />
<glyph unicode="&#xe971;" glyph-name="toilet" d="M204.817 921.6c0-27.158 10.789-53.204 29.992-72.408s45.25-29.992 72.408-29.992c27.158 0 53.204 10.789 72.408 29.992s29.992 45.25 29.992 72.408c0 27.158-10.789 53.204-29.992 72.408s-45.25 29.992-72.408 29.992c-27.158 0-53.204-10.789-72.408-29.992s-29.992-45.25-29.992-72.408zM785.084 1024c27.157 0 53.205-10.789 72.41-29.992s29.99-45.25 29.99-72.408c0-27.158-10.786-53.204-29.99-72.408s-45.252-29.992-72.41-29.992c-27.157 0-53.205 10.789-72.405 29.992-19.204 19.204-29.995 45.25-29.995 72.408s10.79 53.204 29.995 72.408c19.2 19.204 45.248 29.992 72.405 29.992zM224.615 750.933c-12.033-0.004-23.851-3.188-34.257-9.231s-19.030-14.727-24.998-25.176l-126.703-221.73c-2.351-3.895-3.898-8.222-4.552-12.727-0.654-4.501-0.401-9.092 0.745-13.495s3.16-8.533 5.924-12.147c2.765-3.614 6.225-6.639 10.175-8.896s8.314-3.703 12.831-4.25c4.518-0.55 9.099-0.188 13.475 1.062s8.457 3.362 12.005 6.208c3.547 2.85 6.49 6.383 8.653 10.385l96.393 168.755c-42.961-118.537-84.969-237.414-126.020-356.625h136.533v-170.667c0-9.054 3.596-17.737 9.997-24.137s15.084-9.997 24.136-9.997c9.053 0 17.734 3.597 24.136 9.997s9.998 15.083 9.998 24.137v170.667h68.267v-170.667c0-9.054 3.596-17.737 9.997-24.137s15.084-9.997 24.136-9.997c9.053 0 17.735 3.597 24.136 9.997s9.998 15.083 9.998 24.137v170.667h136.533l-129.501 362.701 99.874-174.831c2.163-4.002 5.107-7.535 8.653-10.385 3.55-2.846 7.629-4.958 12.006-6.208 4.373-1.25 8.956-1.613 13.474-1.062 4.518 0.546 8.879 1.993 12.83 4.25s7.411 5.282 10.176 8.896c2.765 3.614 4.779 7.744 5.926 12.147 1.143 4.403 1.395 8.994 0.742 13.495-0.653 4.506-2.202 8.832-4.553 12.727l-126.703 221.73c-5.969 10.449-14.592 19.134-24.998 25.176s-22.224 9.227-34.257 9.231h-165.205zM614.417 716.8c0 9.053 3.597 17.735 9.997 24.136 6.404 6.401 15.083 9.998 24.137 9.998h273.067c9.054 0 17.737-3.596 24.137-9.998s9.997-15.083 9.997-24.136v-341.333c0-9.054-3.597-17.737-9.997-24.137s-15.083-9.997-24.137-9.997c-9.054 0-17.732 3.597-24.137 9.997-6.4 6.4-9.997 15.083-9.997 24.137v-273.067c0-9.054-3.597-17.737-9.997-24.137s-15.083-9.997-24.137-9.997c-9.054 0-17.732 3.597-24.137 9.997-6.4 6.4-9.997 15.083-9.997 24.137v273.067h-68.267v-273.067c0-9.054-3.597-17.737-9.997-24.137s-15.083-9.997-24.137-9.997c-9.054 0-17.732 3.597-24.137 9.997-6.4 6.4-9.997 15.083-9.997 24.137v273.067c0-9.054-3.597-17.737-9.997-24.137s-15.083-9.997-24.137-9.997c-9.054 0-17.732 3.597-24.137 9.997-6.4 6.4-9.997 15.083-9.997 24.137v341.333z" />
<glyph unicode="&#xe973;" glyph-name="wc" d="M193.697 305.212l-108.364 372.364h99.455l56.182-244.001h3.091l64.182 244.001h81.091l64.183-244.547h3.089l56.363 244.547h99.273l-108.181-372.364h-86.726l-67.091 225.818h-2.909l-67.091-225.818h-86.545zM965.423 542.669h-90.91c-1.212 9.331-3.695 17.754-7.454 25.271-3.755 7.514-8.725 13.939-14.908 19.273s-13.517 9.395-21.999 12.181c-8.363 2.909-17.638 4.364-27.819 4.364-18.061 0-33.638-4.424-46.729-13.272-12.971-8.849-22.967-21.636-29.999-38.366-6.908-16.725-10.364-36.966-10.364-60.727 0-24.725 3.516-45.453 10.547-62.178 7.151-16.606 17.148-29.154 29.999-37.636 12.971-8.367 28.301-12.548 45.999-12.548 9.941 0 18.97 1.276 27.089 3.819 8.243 2.547 15.458 6.242 21.636 11.093 6.306 4.966 11.456 10.97 15.458 17.997 4.122 7.151 6.967 15.215 8.542 24.183l90.91-0.546c-1.574-16.486-6.362-32.725-14.362-48.725-7.881-16-18.726-30.609-32.546-43.819-13.82-13.090-30.669-23.518-50.547-31.275-19.755-7.757-42.423-11.635-67.998-11.635-33.698 0-63.881 7.394-90.547 22.182-26.543 14.908-47.514 36.604-62.908 65.088-15.394 28.489-23.091 63.155-23.091 104 0 40.973 7.817 75.699 23.454 104.183s36.787 50.121 63.454 64.909c26.667 14.788 56.546 22.182 89.638 22.182 22.545 0 43.392-3.151 62.545-9.455 19.153-6.182 35.998-15.273 50.547-27.273 14.545-11.878 26.364-26.484 35.452-43.818 9.092-17.332 14.729-37.151 16.909-59.453z" />
<glyph unicode="&#xe974;" glyph-name="arrow" d="M682.667 544l-170.667 224-170.667-224h108.608v-288h124.117v288h108.608z" />
</font>
</defs>
</svg>
